<?xml version="1.0" standalone="no"?>
<!DOCTYPE svg PUBLIC "-//W3C//DTD SVG 1.1//EN" "http://www.w3.org/Graphics/SVG/1.1/DTD/svg11.dtd" >
<svg>
<metadata>
Created by FontForge 20110222 at Thu Sep  4 07:09:40 2014
 By deploy user
Copyright 1990-1998 Bitstream Inc.  All rights reserved.
</metadata>
<defs>
<font id="AvantGardeITCbyBT-Demi" horiz-adv-x="1024" >
  <font-face 
    font-family="AvantGarde Bk BT"
    font-weight="700"
    font-stretch="normal"
    units-per-em="2048"
    panose-1="2 11 7 2 2 2 2 2 2 4"
    ascent="1556"
    descent="-492"
    x-height="1100"
    cap-height="1456"
    bbox="-342 -483 2568 1958"
    underline-thickness="195"
    underline-position="-98"
    unicode-range="U+0020-F002"
  />
<missing-glyph horiz-adv-x="1229" 
d="M102 -362v1806h1024v-1806h-1024zM217 -248h795v1577h-795v-1577z" />
    <glyph glyph-name=".notdef" horiz-adv-x="1229" 
d="M102 -362v1806h1024v-1806h-1024zM217 -248h795v1577h-795v-1577z" />
    <glyph glyph-name=".null" horiz-adv-x="0" 
 />
    <glyph glyph-name="nonmarkingreturn" horiz-adv-x="596" 
 />
    <glyph glyph-name="space" unicode=" " horiz-adv-x="596" 
 />
    <glyph glyph-name="exclam" unicode="!" horiz-adv-x="627" 
d="M440 397h-256v1059h256v-1059zM440 0h-256v274h256v-274z" />
    <glyph glyph-name="quotedbl" unicode="&#x22;" horiz-adv-x="643" 
d="M395 1436h164v-557h-164v557zM86 1436h164v-557h-164v557z" />
    <glyph glyph-name="numbersign" unicode="#" horiz-adv-x="1575" 
d="M709 852l-91 -254h256l91 254h-256zM735 1460h191l-154 -436h250l156 436h190l-154 -436h291l-59 -172h-293l-90 -252h309l-61 -172h-307l-156 -434h-191l156 434h-252l-158 -434h-190l156 434h-299l61 172h297l90 252h-315l61 172h316z" />
    <glyph glyph-name="dollar" unicode="$" horiz-adv-x="1190" 
d="M416 452q3 -94 48 -142t130 -48q77 0 123.5 50t46.5 132q0 76 -39.5 117.5t-189.5 87.5q-181 54 -263 146.5t-82 238.5q0 149 78.5 253.5t223.5 150.5v219h237v-221q131 -34 203 -130t80 -245h-250q-3 62 -46.5 101.5t-109.5 39.5q-76 0 -122 -44t-46 -116
q0 -27 8.5 -46.5t26.5 -34.5q44 -36 172 -69q72 -19 111 -32q139 -48 213.5 -147.5t74.5 -237.5q0 -171 -80.5 -286t-234.5 -164v-263h-237v250q-164 39 -253.5 153.5t-90.5 287.5z" />
    <glyph glyph-name="percent" unicode="%" horiz-adv-x="1796" 
d="M90 1126q0 72 27.5 137.5t79.5 116.5q51 51 115.5 78t136.5 27t137.5 -27t115.5 -78q52 -51 79.5 -116.5t27.5 -137.5t-27.5 -137t-79.5 -117q-50 -50 -115.5 -77t-137.5 -27t-136.5 27t-115.5 77q-52 52 -79.5 117.5t-27.5 136.5zM281 1126q0 -70 48.5 -117.5
t119.5 -47.5t119 47.5t48 117.5q0 71 -48.5 119.5t-118.5 48.5q-71 0 -119.5 -48.5t-48.5 -119.5zM1208 1485h162l-778 -1516h-162zM1178 330q0 -71 48.5 -119.5t119.5 -48.5q70 0 118.5 48.5t48.5 119.5q0 70 -48.5 119t-118.5 49q-71 0 -119.5 -49t-48.5 -119zM987 330
q0 72 27 137.5t78 116.5q50 50 115.5 77t138.5 27q72 0 137.5 -27t115.5 -77q51 -51 78 -116.5t27 -137.5q0 -73 -26.5 -138t-78.5 -116q-50 -51 -115.5 -78t-137.5 -27q-73 0 -138.5 27t-115.5 78q-51 50 -78 115.5t-27 138.5z" />
    <glyph glyph-name="ampersand" unicode="&#x26;" horiz-adv-x="1333" 
d="M893 244q-71 -134 -176.5 -204.5t-235.5 -70.5q-182 0 -307 127.5t-125 311.5q0 121 62.5 222t195.5 195q-86 84 -120.5 151.5t-34.5 143.5q0 154 105 259.5t259 105.5q135 0 235.5 -103t100.5 -241q0 -96 -55.5 -179.5t-163.5 -152.5l207 -193l135 353h258l-207 -510
l332 -289l-172 -193zM705 410l-242 229q-83 -49 -122.5 -104.5t-39.5 -124.5q0 -80 50.5 -133.5t125.5 -53.5q71 0 128.5 47.5t99.5 139.5zM496 961q65 34 97 74.5t32 90.5t-35.5 86.5t-83.5 36.5q-53 0 -86 -34.5t-33 -92.5q0 -43 25 -80.5t84 -80.5z" />
    <glyph glyph-name="quotesingle" unicode="'" horiz-adv-x="334" 
d="M86 1436h164v-557h-164v557z" />
    <glyph glyph-name="parenleft" unicode="(" horiz-adv-x="606" 
d="M526 1485v-277q-91 -59 -128.5 -144.5t-37.5 -254.5v-576q0 -168 37.5 -254t128.5 -145v-276q-214 75 -323 228.5t-109 381.5v706q0 228 109 382t323 229z" />
    <glyph glyph-name="parenright" unicode=")" horiz-adv-x="606" 
d="M80 1485q215 -75 323.5 -229t108.5 -382v-706q0 -228 -108.5 -381.5t-323.5 -228.5v276q91 59 128.5 145t37.5 254v576q0 169 -37.5 254.5t-128.5 144.5v277z" />
    <glyph glyph-name="asterisk" unicode="*" 
d="M510 907l-178 -252l-146 101l195 248l-287 79l53 170l277 -92v295h172v-295l272 92l62 -170l-289 -77l190 -250l-143 -105z" />
    <glyph glyph-name="plus" unicode="+" horiz-adv-x="1706" 
d="M768 1221h170v-527h514v-166h-514v-528h-170v528h-514v166h514v527z" />
    <glyph glyph-name="comma" unicode="," horiz-adv-x="596" 
d="M426 274v-260q0 -141 -61.5 -207t-194.5 -69v147q46 6 65 29.5t19 75.5v10h-84v274h256z" />
    <glyph glyph-name="hyphen" unicode="-" horiz-adv-x="696" 
d="M606 668v-236h-516v236h516z" />
    <glyph glyph-name="period" unicode="." horiz-adv-x="596" 
d="M426 0h-256v274h256v-274z" />
    <glyph glyph-name="slash" unicode="/" horiz-adv-x="569" 
d="M94 -190h-139l477 1646h137z" />
    <glyph glyph-name="zero" unicode="0" horiz-adv-x="1190" 
d="M371 948v-438q0 -142 54.5 -210.5t168.5 -68.5q115 0 170 70t55 217v451q0 62 -5.5 93t-18.5 54q-31 52 -82.5 80.5t-116.5 28.5q-112 0 -168.5 -69.5t-56.5 -207.5zM86 946q0 136 21 209.5t69 134.5q75 99 179 147t241 48q128 0 235.5 -50.5t186.5 -148.5
q45 -56 65.5 -136t20.5 -208v-432q0 -136 -21 -210.5t-69 -135.5q-75 -98 -178.5 -145.5t-241.5 -47.5q-128 0 -235.5 50.5t-186.5 148.5q-45 56 -65.5 135.5t-20.5 206.5v434z" />
    <glyph glyph-name="one" unicode="1" horiz-adv-x="1190" 
d="M778 0h-274v1241h-254v215h528v-1456z" />
    <glyph glyph-name="two" unicode="2" horiz-adv-x="1190" 
d="M1069 0h-960v272l528 494q75 70 113 138t38 130q0 82 -52.5 135.5t-135.5 53.5q-88 0 -136 -57t-48 -160v-25h-287v4q0 225 131 361.5t346 136.5q199 0 334 -131t135 -320q0 -104 -53 -203t-164 -198l-407 -369h618v-262z" />
    <glyph glyph-name="three" unicode="3" horiz-adv-x="1190" 
d="M115 467h272v-10q0 -102 55 -164t144 -62q98 0 159.5 69.5t61.5 180.5q0 113 -68 170.5t-202 57.5q-6 0 -20 -1t-21 -1v241q7 0 20 -1t19 -1q91 0 133.5 36t42.5 114q0 64 -33 99.5t-92 35.5q-53 0 -82.5 -36.5t-32.5 -102.5h-252q0 177 105.5 285t277.5 108
q153 0 260 -107t107 -256q0 -89 -35 -155t-109 -117q125 -56 186.5 -153.5t61.5 -239.5q0 -95 -30 -174.5t-93 -151.5q-75 -86 -157 -123t-199 -37q-225 0 -352 130t-127 360v6z" />
    <glyph glyph-name="four" unicode="4" horiz-adv-x="1190" 
d="M727 463v608l-387 -608h387zM977 0h-250v221h-639v242l629 993h260v-993h123v-242h-123v-221z" />
    <glyph glyph-name="five" unicode="5" horiz-adv-x="1190" 
d="M961 1456v-252h-500l-45 -250q45 26 95 39t105 13q201 0 342.5 -150t141.5 -362q0 -96 -33.5 -183.5t-97.5 -160.5q-77 -90 -175.5 -135.5t-213.5 -45.5q-207 0 -349.5 134.5t-160.5 349.5h274q12 -98 77 -159t157 -61q100 0 166.5 74.5t66.5 188.5q0 113 -67 182.5
t-177 69.5q-66 0 -113.5 -26.5t-76.5 -78.5l-242 55l139 758h687z" />
    <glyph glyph-name="six" unicode="6" horiz-adv-x="1190" 
d="M356 494q0 -109 70 -185t168 -76q104 0 170.5 70.5t66.5 181.5t-65.5 181.5t-167.5 70.5q-100 0 -171 -72t-71 -171zM604 1456h297l-330 -498q39 9 64 12t47 3q179 0 303.5 -142t124.5 -348q0 -85 -33.5 -174t-91.5 -157q-79 -93 -172.5 -136t-218.5 -43q-105 0 -198 38
t-165 110t-110.5 161.5t-38.5 184.5q0 108 42 217.5t163 290.5z" />
    <glyph glyph-name="seven" unicode="7" horiz-adv-x="1190" 
d="M518 0h-291l543 1200h-569v256h833v-270z" />
    <glyph glyph-name="eight" unicode="8" horiz-adv-x="1190" 
d="M459 1090q0 -63 37.5 -102.5t97.5 -39.5q64 0 100.5 39t36.5 107q0 64 -37.5 104.5t-97.5 40.5t-98.5 -41.5t-38.5 -107.5zM393 432q0 -89 57 -149t140 -60q89 0 147 60t58 151q0 97 -56 154t-151 57q-89 0 -142 -58t-53 -155zM340 813q-78 48 -121 123t-43 164
q0 158 121 271.5t293 113.5q181 0 302.5 -111.5t121.5 -275.5q0 -92 -43 -164t-127 -121q120 -61 178.5 -152.5t58.5 -216.5q0 -208 -137.5 -340.5t-355.5 -132.5q-205 0 -342 135.5t-137 337.5q0 119 56.5 208.5t174.5 160.5z" />
    <glyph glyph-name="nine" unicode="9" horiz-adv-x="1190" 
d="M836 961q0 109 -70 185.5t-168 76.5q-103 0 -170.5 -71.5t-67.5 -182.5q0 -110 66 -181t168 -71q100 0 171 72t71 172zM588 0h-297l330 496q-39 -8 -64 -11.5t-47 -3.5q-179 0 -303.5 143t-124.5 349q0 84 33.5 172t91.5 158q79 93 173.5 136.5t217.5 43.5q105 0 198 -38
t165 -110q71 -71 110 -162t39 -186q0 -108 -42 -217.5t-163 -290.5z" />
    <glyph glyph-name="colon" unicode=":" horiz-adv-x="627" 
d="M440 778h-256v275h256v-275zM440 0h-256v274h256v-274z" />
    <glyph glyph-name="semicolon" unicode=";" horiz-adv-x="627" 
d="M440 274v-260q0 -141 -61 -207t-194 -69l-1 147q48 6 67 29t19 76v10h-86v274h256zM440 778h-256v275h256v-275z" />
    <glyph glyph-name="less" unicode="&#x3c;" horiz-adv-x="1706" 
d="M1442 1176v-185l-934 -381l934 -381v-182l-1178 483v160z" />
    <glyph glyph-name="equal" unicode="=" horiz-adv-x="1706" 
d="M254 487h1198v-165h-1198v165zM254 901h1198v-168h-1198v168z" />
    <glyph glyph-name="greater" unicode="&#x3e;" horiz-adv-x="1706" 
d="M264 1176l1178 -486v-160l-1178 -483v182l934 381l-934 381v185z" />
    <glyph glyph-name="question" unicode="?" horiz-adv-x="1042" 
d="M387 397q0 95 31 176.5t104 174.5q14 18 63.5 66.5t76.5 84.5q18 24 26 53t8 68q0 97 -50 152t-140 55q-79 0 -127 -58.5t-49 -156.5h-268q1 209 130.5 341t329.5 132q201 0 332 -127t131 -322q0 -170 -160 -314q-22 -20 -32 -30q-81 -75 -114 -141.5t-36 -152.5zM387 0
v274h256v-274h-256z" />
    <glyph glyph-name="at" unicode="@" horiz-adv-x="2048" 
d="M1174 283q-55 -87 -128 -127.5t-176 -40.5q-152 0 -232.5 86.5t-80.5 249.5q0 233 138 395t333 162q89 0 149 -34.5t99 -107.5l55 107h154l-148 -586q-1 -5 -2 -12q-6 -28 -6 -37q0 -38 26.5 -61t69.5 -23q51 0 107.5 30.5t105.5 84.5q72 76 110 177.5t38 215.5
q0 253 -187 411t-489 158q-138 0 -256 -31t-215 -94q-181 -113 -279 -291t-98 -395q0 -312 209.5 -499t558.5 -187q166 0 323.5 49t291.5 142l67 -99q-149 -113 -318.5 -170t-355.5 -57q-192 0 -351 48t-281 142q-155 118 -231.5 275.5t-76.5 357.5q0 165 52 313.5
t153 272.5q147 179 353.5 272t459.5 93q166 0 315 -45.5t255 -127.5q132 -102 198 -235.5t66 -300.5q0 -162 -65 -302t-185 -237q-69 -55 -150 -83.5t-168 -28.5q-106 0 -157 40.5t-51 125.5v4zM1233 707q-14 84 -61.5 130t-122.5 46q-127 0 -217.5 -128.5t-90.5 -310.5
q0 -98 45.5 -151t128.5 -53q90 0 163.5 66.5t99.5 172.5z" />
    <glyph glyph-name="A" unicode="A" horiz-adv-x="1233" 
d="M778 575l-172 469l-176 -469h348zM332 305l-113 -305h-295l565 1456h246l557 -1456h-305l-115 305h-540z" />
    <glyph glyph-name="B" unicode="B" horiz-adv-x="1053" 
d="M401 870h33q118 0 176 42.5t58 127.5q0 82 -55 121t-171 39h-41v-330zM401 256h86q130 0 191 43.5t61 134.5q0 99 -64 150t-188 51h-86v-379zM127 0v1456h313q95 0 151 -7.5t99 -25.5q120 -49 184 -141t64 -215q0 -102 -38 -174t-112 -109q108 -32 170 -123t62 -217
q0 -102 -38 -191.5t-105 -148.5q-67 -56 -150 -80t-235 -24h-365z" />
    <glyph glyph-name="C" unicode="C" horiz-adv-x="1540" 
d="M1489 1024h-348q-62 84 -147.5 126t-194.5 42q-88 0 -167 -33t-140 -96q-65 -66 -100.5 -152.5t-35.5 -177.5q0 -200 128.5 -335.5t314.5 -135.5q107 0 192.5 40t138.5 116h349q-102 -223 -272 -335t-406 -112q-164 0 -302.5 63t-248.5 187q-93 103 -141 234.5t-48 281.5
q0 152 58 288.5t170 248.5q106 104 235.5 157.5t278.5 53.5q239 0 408.5 -114t277.5 -347z" />
    <glyph glyph-name="D" unicode="D" horiz-adv-x="1403" 
d="M598 250q237 0 349 116t112 363q0 227 -122.5 353t-342.5 126h-186v-958h190zM616 0h-495v1456h487q198 0 317 -40t216 -134q103 -100 156 -242t53 -319q0 -198 -74 -354.5t-215 -257.5q-80 -59 -179 -84t-266 -25z" />
    <glyph glyph-name="E" unicode="E" 
d="M907 0h-786v1456h786v-256h-504v-332h504v-252h-504v-360h504v-256z" />
    <glyph glyph-name="F" unicode="F" horiz-adv-x="985" 
d="M121 0v1456h786v-256h-504v-332h504v-252h-504v-616h-282z" />
    <glyph glyph-name="G" unicode="G" horiz-adv-x="1612" 
d="M1554 774q0 -8 1 -24.5t1 -24.5q0 -94 -17 -174.5t-52 -151.5q-103 -205 -280.5 -316.5t-401.5 -111.5q-165 0 -305 63t-252 187q-93 104 -142 236t-49 280q0 152 59 288.5t173 248.5q108 107 240.5 159t293.5 52q235 0 406 -115t264 -336h-346q-63 79 -148.5 118.5
t-191.5 39.5q-187 0 -317 -135t-130 -328q0 -196 131.5 -330.5t323.5 -134.5q133 0 241.5 72t160.5 194h-572v244h909z" />
    <glyph glyph-name="H" unicode="H" horiz-adv-x="1280" 
d="M406 592v-592h-285v1456h285v-590h468v590h285v-1456h-285v592h-468z" />
    <glyph glyph-name="I" unicode="I" horiz-adv-x="530" 
d="M123 0v1456h285v-1456h-285z" />
    <glyph glyph-name="J" unicode="J" horiz-adv-x="924" 
d="M805 498q0 -147 -15 -222t-51 -131q-53 -84 -141.5 -129t-200.5 -45q-193 0 -295 108.5t-102 313.5h283v-4q0 -62 29.5 -96.5t82.5 -34.5q68 0 96.5 58.5t28.5 203.5v936h285v-958z" />
    <glyph glyph-name="K" unicode="K" horiz-adv-x="1139" 
d="M410 723l440 733h317l-467 -723l467 -733h-317zM406 0h-285v1456h285v-1456z" />
    <glyph glyph-name="L" unicode="L" horiz-adv-x="901" 
d="M860 0h-739v1456h282v-1200h457v-256z" />
    <glyph glyph-name="M" unicode="M" horiz-adv-x="1735" 
d="M403 0h-282v1456h377l370 -1059l369 1059h377v-1456h-281l10 1057l-368 -1057h-215l-369 1057z" />
    <glyph glyph-name="N" unicode="N" horiz-adv-x="1395" 
d="M401 0h-280v1456h270l602 -930v930h279v-1456h-264l-607 958v-958z" />
    <glyph glyph-name="O" unicode="O" horiz-adv-x="1612" 
d="M356 741q0 -94 31 -175t92 -148q67 -73 152 -112.5t176 -39.5q191 0 320.5 136t129.5 339q0 186 -130.5 317.5t-313.5 131.5q-191 0 -324 -131t-133 -318zM57 731q0 120 32 226.5t95 199.5q108 157 271 242.5t356 85.5q145 0 279.5 -56t240.5 -161q109 -109 166 -245
t57 -286q0 -156 -53.5 -293t-157.5 -243q-105 -111 -244.5 -170.5t-291.5 -59.5q-163 0 -300 58t-243 172q-102 108 -154.5 242.5t-52.5 287.5z" />
    <glyph glyph-name="P" unicode="P" horiz-adv-x="1053" 
d="M406 805h75q119 0 182.5 51.5t63.5 147.5q0 99 -61.5 147.5t-186.5 48.5h-73v-395zM406 0h-285v1456h362q138 0 217.5 -15t128.5 -48q90 -61 141.5 -161t51.5 -214q0 -209 -138 -334t-372 -125h-106v-559z" />
    <glyph glyph-name="Q" unicode="Q" horiz-adv-x="1612" 
d="M1155 444q52 56 78.5 127t26.5 158q0 198 -131.5 333.5t-323.5 135.5q-187 0 -319 -137.5t-132 -327.5q0 -18 3 -36.5t10 -39.5q48 16 94 23.5t92 7.5q160 0 307 -59.5t295 -184.5zM439 465q67 -95 163.5 -146t210.5 -51q43 0 87.5 9.5t90.5 27.5q-127 84 -242.5 125
t-224.5 41q-21 0 -42.5 -1.5t-42.5 -4.5zM1192 80q-84 -55 -183.5 -83t-209.5 -28q-124 0 -240.5 42t-218.5 122q-138 110 -210.5 265t-72.5 339q0 151 59.5 288t172.5 249q105 104 236.5 157.5t281.5 53.5q155 0 288 -53.5t240 -159.5q114 -111 171 -249t57 -302
q0 -143 -44.5 -261.5t-134.5 -213.5q39 -19 81 -28t89 -9h29v-232q-6 0 -18.5 -1t-18.5 -1q-87 0 -175.5 26.5t-178.5 78.5z" />
    <glyph glyph-name="R" unicode="R" horiz-adv-x="1165" 
d="M406 748h63q173 0 262.5 62.5t89.5 182.5q0 116 -75 171t-234 55h-106v-471zM406 0h-285v1456h346q165 0 245.5 -11.5t137.5 -37.5q124 -58 189 -162t65 -244q0 -169 -93 -286.5t-253 -149.5l364 -565h-340l-376 676v-676z" />
    <glyph glyph-name="S" unicode="S" horiz-adv-x="981" 
d="M33 452l260 1v-21q0 -92 48 -147.5t128 -55.5q86 0 136 51.5t50 139.5q0 141 -202 202q-26 8 -41 13q-170 53 -252 150.5t-82 246.5q0 205 113.5 329t302.5 124q177 0 282 -110.5t117 -309.5h-258v12q0 70 -42 113t-110 43q-70 0 -110.5 -44t-40.5 -120q0 -32 8.5 -56.5
t26.5 -44.5q41 -45 176 -83q60 -16 92 -27q150 -51 221.5 -146t71.5 -243q0 -225 -125 -361.5t-332 -136.5q-195 0 -315 132t-123 349z" />
    <glyph glyph-name="T" unicode="T" horiz-adv-x="858" 
d="M846 1456v-256h-275v-1200h-284v1200h-275v256h834z" />
    <glyph glyph-name="U" unicode="U" horiz-adv-x="1180" 
d="M121 1456h285v-840q0 -197 41.5 -273.5t142.5 -76.5t142.5 76.5t41.5 273.5v840h285v-924q0 -154 -17 -231t-57 -135q-68 -100 -164 -147.5t-231 -47.5t-231 47.5t-164 147.5q-40 58 -57 130t-17 236v924z" />
    <glyph glyph-name="V" unicode="V" horiz-adv-x="1161" 
d="M682 0h-203l-522 1456h305l318 -971l319 971h303z" />
    <glyph glyph-name="W" unicode="W" horiz-adv-x="1726" 
d="M-31 1456h291l240 -944l264 944h197l264 -944l239 944h291l-422 -1456h-227l-244 909l-246 -909h-225z" />
    <glyph glyph-name="X" unicode="X" horiz-adv-x="1200" 
d="M600 512l-295 -512h-321l467 735l-455 721h321l283 -506l281 506h321l-452 -721l464 -735h-321z" />
    <glyph glyph-name="Y" unicode="Y" horiz-adv-x="1010" 
d="M643 524v-524h-285v524l-417 932h313l252 -627l250 627h311z" />
    <glyph glyph-name="Z" unicode="Z" horiz-adv-x="973" 
d="M942 0h-913v252l575 934h-534v270h858v-233l-586 -953h600v-270z" />
    <glyph glyph-name="bracketleft" unicode="[" horiz-adv-x="606" 
d="M371 1229v-1411h188v-228h-444v1866h444v-227h-188z" />
    <glyph glyph-name="backslash" unicode="\" horiz-adv-x="569" 
d="M475 -190l-475 1646h137l475 -1646h-137z" />
    <glyph glyph-name="bracketright" unicode="]" horiz-adv-x="606" 
d="M238 1229h-191v227h447v-1866h-447v228h191v1411z" />
    <glyph glyph-name="asciicircum" unicode="^" horiz-adv-x="2048" 
d="M915 1460h218l495 -561h-207l-397 397l-399 -397h-207z" />
    <glyph glyph-name="underscore" unicode="_" 
d="M0 -311h1024v-172h-1024v172z" />
    <glyph glyph-name="grave" unicode="`" 
d="M659 1243h-131l-295 348h222z" />
    <glyph glyph-name="a" unicode="a" horiz-adv-x="1319" 
d="M309 559q0 -139 92.5 -232.5t225.5 -93.5q121 0 213 94t92 220q0 134 -92.5 230.5t-216.5 96.5q-130 0 -222 -91.5t-92 -223.5zM961 0v135q-46 -82 -129.5 -121t-213.5 -39q-244 0 -407.5 166.5t-163.5 413.5q0 116 41 220t117 183q82 87 182 128.5t225 41.5
q120 0 206.5 -40t139.5 -121v133h250v-1100h-247z" />
    <glyph glyph-name="b" unicode="b" horiz-adv-x="1319" 
d="M358 545q0 -134 89 -227t215 -93q143 0 237 92.5t94 231.5q0 133 -93.5 229t-225.5 96q-134 0 -225 -94.5t-91 -234.5zM348 1012q71 59 154 86.5t190 27.5q110 0 207 -37t172 -108q89 -82 137.5 -193.5t48.5 -234.5q0 -132 -53.5 -249.5t-152.5 -203.5q-73 -63 -165 -96
t-196 -33q-98 0 -182 29.5t-160 89.5v-90h-252v1456h252v-444z" />
    <glyph glyph-name="c" unicode="c" horiz-adv-x="1241" 
d="M905 709q-46 86 -117.5 129t-169.5 43q-130 0 -217.5 -94t-87.5 -236q0 -140 89.5 -233t224.5 -93q104 0 173 44.5t103 133.5h273q-50 -202 -195 -317t-352 -115q-122 0 -226 43.5t-188 128.5q-78 80 -122 187.5t-44 218.5q0 116 40 217t118 182q86 91 194 138t232 47
q202 0 350 -115t195 -309h-273z" />
    <glyph glyph-name="d" unicode="d" horiz-adv-x="1319" 
d="M958 545q0 141 -89.5 235t-223.5 94q-132 0 -225.5 -96t-93.5 -229q0 -139 94 -231.5t237 -92.5q126 0 213.5 93t87.5 227zM969 1012v444h252v-1456h-252v90q-76 -60 -160 -89.5t-182 -29.5q-104 0 -196 33t-165 96q-100 86 -153.5 203.5t-53.5 249.5q0 122 49.5 234
t139.5 194q75 71 172 108t207 37q106 0 188 -27.5t154 -86.5z" />
    <glyph glyph-name="e" unicode="e" horiz-adv-x="1241" 
d="M920 672q-33 110 -110.5 167.5t-195.5 57.5q-102 0 -183 -62t-109 -163h598zM313 469q13 -119 94.5 -187.5t210.5 -68.5q86 0 154.5 36t108.5 101h276q-70 -180 -209.5 -279.5t-322.5 -99.5q-123 0 -226.5 43.5t-185.5 128.5q-78 81 -121 187.5t-43 218.5
q0 115 39.5 216.5t116.5 182.5q84 89 190 137t219 48q143 0 267 -65t211 -183q53 -71 78.5 -159t25.5 -202q0 -9 -1 -27.5t-1 -27.5h-881z" />
    <glyph glyph-name="f" unicode="f" horiz-adv-x="606" 
d="M596 1100v-228h-184v-872h-248v872h-131v228h123v30q0 174 96 259.5t291 85.5q8 0 25.5 -1t27.5 -1v-230h-18q-87 0 -124.5 -28.5t-37.5 -94.5v-20h180z" />
    <glyph glyph-name="g" unicode="g" horiz-adv-x="1319" 
d="M985 1100h229v-918q0 -286 -152.5 -449t-418.5 -163q-199 0 -333 93.5t-197 277.5h247q40 -74 114 -116t165 -42q153 0 248.5 99.5t95.5 262.5v11q-74 -77 -169 -116.5t-208 -39.5q-110 0 -208.5 38t-174.5 109q-82 78 -129 186t-47 220q0 250 158 412.5t401 162.5
q111 0 204.5 -39t174.5 -120v131zM301 569q0 -144 96.5 -241t237.5 -97q129 0 227.5 98t98.5 228q0 141 -97 240.5t-231 99.5q-138 0 -235 -95t-97 -233z" />
    <glyph glyph-name="h" unicode="h" horiz-adv-x="1194" 
d="M365 1456v-481q56 75 128.5 111t165.5 36q206 0 316 -126.5t110 -364.5v-631h-256v485q0 226 -50.5 306.5t-176.5 80.5q-128 0 -184 -90.5t-56 -310.5v-471h-247v1456h250z" />
    <glyph glyph-name="i" unicode="i" horiz-adv-x="479" 
d="M365 1212h-250v244h250v-244zM115 0v1100h250v-1100h-250z" />
    <glyph glyph-name="j" unicode="j" horiz-adv-x="502" 
d="M367 1100v-1061q0 -239 -67.5 -317t-248.5 -78q-27 0 -41 0.5t-26 1.5v248h8q76 0 101.5 31.5t25.5 164.5v1010h248zM367 1212h-248v244h248v-244z" />
    <glyph glyph-name="k" unicode="k" horiz-adv-x="1014" 
d="M360 0h-247v1456h247v-866l357 510h289l-381 -522l456 -578h-321l-400 559v-559z" />
    <glyph glyph-name="l" unicode="l" horiz-adv-x="479" 
d="M115 0v1456h250v-1456h-250z" />
    <glyph glyph-name="m" unicode="m" horiz-adv-x="1901" 
d="M365 1100v-125q56 75 128.5 111t165.5 36q133 0 227.5 -47t162.5 -147q65 98 146 146t179 48q202 0 310 -127t108 -364v-631h-252v487q0 224 -49.5 304.5t-171.5 80.5q-127 0 -181.5 -90.5t-54.5 -310.5v-471h-254v487q0 223 -50.5 304t-176.5 81q-128 0 -184 -90.5
t-56 -310.5v-471h-247v1100h250z" />
    <glyph glyph-name="n" unicode="n" horiz-adv-x="1194" 
d="M365 1100v-125q56 75 128.5 111t165.5 36q119 0 207.5 -45t147.5 -135q38 -60 54.5 -136.5t16.5 -223.5v-582h-256v487q0 221 -51 303t-176 82q-128 0 -184 -90.5t-56 -310.5v-471h-247v1100h250z" />
    <glyph glyph-name="o" unicode="o" horiz-adv-x="1247" 
d="M311 557q0 -153 84 -242.5t228 -89.5q142 0 226.5 91.5t84.5 246.5q0 139 -88.5 228.5t-222.5 89.5q-138 0 -225 -90.5t-87 -233.5zM47 555q0 116 42.5 220.5t123.5 185.5q83 83 187 127.5t216 44.5q119 0 219.5 -39.5t184.5 -118.5q86 -83 133 -191.5t47 -222.5
q0 -126 -41 -230t-123 -188q-82 -85 -187 -128.5t-228 -43.5q-124 0 -226 44t-186 132q-80 86 -121 189.5t-41 218.5z" />
    <glyph glyph-name="p" unicode="p" horiz-adv-x="1319" 
d="M358 555q0 -141 91 -235.5t225 -94.5q132 0 225.5 96t93.5 230q0 139 -94 231t-237 92q-126 0 -215 -92.5t-89 -226.5zM348 88v-444h-252v1456h252v-92q77 61 161 90.5t181 29.5q104 0 196 -32.5t165 -96.5q99 -86 152.5 -203t53.5 -249q0 -123 -48.5 -235t-137.5 -193
q-76 -72 -173.5 -110t-205.5 -38q-105 0 -188.5 28.5t-155.5 88.5z" />
    <glyph glyph-name="q" unicode="q" horiz-adv-x="1319" 
d="M958 555q0 134 -87.5 226.5t-213.5 92.5q-143 0 -237 -92t-94 -231q0 -134 93.5 -230t225.5 -96q134 0 223.5 94.5t89.5 235.5zM969 88q-73 -60 -155.5 -88.5t-186.5 -28.5q-108 0 -205.5 38t-173.5 110q-90 82 -139.5 194t-49.5 234q0 132 53.5 249t153.5 203
q73 64 165 96.5t196 32.5q97 0 181 -29.5t161 -90.5v92h252v-1456h-252v444z" />
    <glyph glyph-name="r" unicode="r" horiz-adv-x="616" 
d="M627 877q-149 -12 -208 -78t-59 -238v-561h-256v1100h240v-127q58 74 127 108.5t156 34.5v-239z" />
    <glyph glyph-name="s" unicode="s" horiz-adv-x="834" 
d="M281 365v-15q0 -73 37 -118.5t96 -45.5q56 0 91.5 34t35.5 87q0 49 -26 80.5t-93 63.5q-38 17 -112 47t-95 47q-61 50 -90 111.5t-29 140.5q0 139 97.5 235t236.5 96q147 0 232.5 -85t93.5 -238h-230v6q0 53 -27.5 83t-76.5 30q-43 0 -71.5 -29.5t-28.5 -73.5
q0 -72 148 -134q39 -16 60 -25q142 -64 194 -137.5t52 -198.5q0 -154 -104 -254.5t-262 -100.5q-159 0 -256.5 106t-106.5 287z" />
    <glyph glyph-name="t" unicode="t" horiz-adv-x="627" 
d="M193 0v872h-168v228h168v356h256v-356h169v-228h-169v-872h-256z" />
    <glyph glyph-name="u" unicode="u" horiz-adv-x="1194" 
d="M829 0v119q-56 -75 -128.5 -111.5t-165.5 -36.5q-207 0 -318 127t-111 365v637h259v-494q0 -223 51 -305t176 -82q128 0 183.5 92t55.5 312v477h252v-1100h-254z" />
    <glyph glyph-name="v" unicode="v" horiz-adv-x="995" 
d="M592 0h-201l-418 1100h273l256 -731l264 731h266z" />
    <glyph glyph-name="w" unicode="w" horiz-adv-x="1442" 
d="M719 666l-187 -666h-167l-381 1100h276l178 -635l195 635h188l185 -635l178 635h276l-383 -1100h-168z" />
    <glyph glyph-name="x" unicode="x" horiz-adv-x="934" 
d="M459 350l-228 -350h-280l373 571l-330 529h287l190 -314l195 314h299l-351 -522l355 -578h-291z" />
    <glyph glyph-name="y" unicode="y" horiz-adv-x="1049" 
d="M-23 1100h271l268 -768l295 768h268l-594 -1456h-264l154 387z" />
    <glyph glyph-name="z" unicode="z" horiz-adv-x="862" 
d="M35 0v236l491 626h-450v238h725v-275l-457 -579h487v-246h-796z" />
    <glyph glyph-name="braceleft" unicode="{" 
d="M874 1477v-179q-8 0 -24 1t-23 1q-109 0 -147.5 -41.5t-38.5 -173.5v-241q0 -155 -44 -220.5t-159 -93.5q114 -27 158.5 -92.5t44.5 -220.5v-240q0 -132 39.5 -174.5t148.5 -42.5q7 0 22 1t23 1v-176h-63q-102 0 -165.5 12t-106.5 37q-57 34 -80 96t-23 203v248
q0 144 -52.5 203t-178.5 59q-7 0 -21.5 -1t-21.5 -1v179q7 0 21.5 -1.5t21.5 -1.5q126 0 178.5 59t52.5 202v247q0 145 23 206.5t80 94.5q44 27 109 38.5t181 11.5h45z" />
    <glyph glyph-name="bar" unicode="|" 
d="M424 1565h178v-2048h-178v2048z" />
    <glyph glyph-name="braceright" unicode="}" 
d="M152 1477h45q115 0 179.5 -11.5t108.5 -38.5q57 -33 80 -95t23 -206v-247q0 -144 52 -202.5t179 -58.5q6 0 21 1.5t22 1.5v-179q-7 0 -21.5 1t-21.5 1q-126 0 -178.5 -59t-52.5 -203v-248q0 -143 -23 -204t-80 -95q-43 -26 -108 -37.5t-180 -11.5h-45v176q8 0 23 -1
t22 -1q109 0 147.5 42t38.5 175v240q0 153 45 219t160 94q-115 28 -160 93.5t-45 220.5v241q0 132 -38 173.5t-146 41.5q-7 0 -23 -1t-24 -1v179z" />
    <glyph glyph-name="asciitilde" unicode="~" horiz-adv-x="1706" 
d="M1530 784v-184q-103 -71 -197.5 -106t-183.5 -35q-44 0 -92.5 8.5t-98.5 26.5q-25 8 -76 26q-212 74 -319 74q-82 0 -174 -38t-211 -122v187q106 72 202 107.5t185 35.5q62 0 125.5 -12t168.5 -48q13 -4 42 -15q164 -58 250 -58q85 0 177 37t202 116z" />
    <glyph glyph-name="Adieresis" unicode="&#xc4;" horiz-adv-x="1233" 
d="M778 575l-172 469l-176 -469h348zM332 305l-113 -305h-295l565 1456h246l557 -1456h-305l-115 305h-540zM688 1644v230h204v-230h-204zM340 1644v230h204v-230h-204z" />
    <glyph glyph-name="Aring" unicode="&#xc5;" horiz-adv-x="1233" 
d="M383 1729q0 95 67 162t162 67q96 0 163 -67t67 -162t-67 -161.5t-163 -66.5q-95 0 -162 66.5t-67 161.5zM506 1729q0 -45 31 -76t75 -31q45 0 76 31t31 76q0 44 -31 76t-76 32q-44 0 -75 -32t-31 -76zM778 575l-172 469l-176 -469h348zM332 305l-113 -305h-295l565 1444
h246l557 -1444h-305l-115 305h-540z" />
    <glyph glyph-name="Ccedilla" unicode="&#xc7;" horiz-adv-x="1540" 
d="M1489 1024h-348q-62 84 -147.5 126t-194.5 42q-88 0 -167 -33t-140 -96q-65 -66 -100.5 -152.5t-35.5 -177.5q0 -200 128.5 -335.5t314.5 -135.5q107 0 192.5 40t138.5 116h349q-102 -223 -272 -335t-406 -112q-164 0 -302.5 63t-248.5 187q-93 103 -141 234.5t-48 281.5
q0 152 58 288.5t170 248.5q106 104 235.5 157.5t278.5 53.5q239 0 408.5 -114t277.5 -347zM539 -434v119q83 -22 146.5 -32.5t107.5 -10.5q53 0 80.5 19t27.5 56q0 42 -33.5 61t-107.5 19q-7 0 -21.5 -1t-21.5 -1v205h92v-94h15q118 0 176.5 -48t58.5 -145q0 -90 -65 -140
t-185 -50q-55 0 -123.5 11t-146.5 32z" />
    <glyph glyph-name="Eacute" unicode="&#xc9;" 
d="M907 0h-786v1456h786v-256h-504v-332h504v-252h-504v-360h504v-256zM365 1593l204 348h222l-295 -348h-131z" />
    <glyph glyph-name="Ntilde" unicode="&#xd1;" horiz-adv-x="1395" 
d="M401 0h-280v1456h270l602 -930v930h279v-1456h-264l-607 958v-958zM999 1886q-23 -117 -71 -171t-128 -54q-19 0 -36.5 2t-32.5 6l-84 24q-3 1 -7 2q-42 11 -57 11q-33 0 -54 -16.5t-32 -51.5h-100q20 110 67.5 163.5t124.5 53.5q18 0 39 -3t45 -9l89 -25
q20 -5 30.5 -6.5t20.5 -1.5q31 0 54 20.5t32 55.5h100z" />
    <glyph glyph-name="Odieresis" unicode="&#xd6;" horiz-adv-x="1612" 
d="M356 741q0 -94 31 -175t92 -148q67 -73 152 -112.5t176 -39.5q191 0 320.5 136t129.5 339q0 186 -130.5 317.5t-313.5 131.5q-191 0 -324 -131t-133 -318zM57 731q0 120 32 226.5t95 199.5q108 157 271 242.5t356 85.5q145 0 279.5 -56t240.5 -161q109 -109 166 -245
t57 -286q0 -156 -53.5 -293t-157.5 -243q-105 -111 -244.5 -170.5t-291.5 -59.5q-163 0 -300 58t-243 172q-102 108 -154.5 242.5t-52.5 287.5zM879 1644v230h204v-230h-204zM531 1644v230h204v-230h-204z" />
    <glyph glyph-name="Udieresis" unicode="&#xdc;" horiz-adv-x="1180" 
d="M121 1456h285v-840q0 -197 41.5 -273.5t142.5 -76.5t142.5 76.5t41.5 273.5v840h285v-924q0 -154 -17 -231t-57 -135q-68 -100 -164 -147.5t-231 -47.5t-231 47.5t-164 147.5q-40 58 -57 130t-17 236v924zM662 1644v230h204v-230h-204zM314 1644v230h204v-230h-204z" />
    <glyph glyph-name="aacute" unicode="&#xe1;" horiz-adv-x="1319" 
d="M309 559q0 -139 92.5 -232.5t225.5 -93.5q121 0 213 94t92 220q0 134 -92.5 230.5t-216.5 96.5q-130 0 -222 -91.5t-92 -223.5zM961 0v135q-46 -82 -129.5 -121t-213.5 -39q-244 0 -407.5 166.5t-163.5 413.5q0 116 41 220t117 183q82 87 182 128.5t225 41.5
q120 0 206.5 -40t139.5 -121v133h250v-1100h-247zM512 1243l204 348h222l-295 -348h-131z" />
    <glyph glyph-name="agrave" unicode="&#xe0;" horiz-adv-x="1319" 
d="M309 559q0 -139 92.5 -232.5t225.5 -93.5q121 0 213 94t92 220q0 134 -92.5 230.5t-216.5 96.5q-130 0 -222 -91.5t-92 -223.5zM961 0v135q-46 -82 -129.5 -121t-213.5 -39q-244 0 -407.5 166.5t-163.5 413.5q0 116 41 220t117 183q82 87 182 128.5t225 41.5
q120 0 206.5 -40t139.5 -121v133h250v-1100h-247zM806 1243h-131l-295 348h222z" />
    <glyph glyph-name="acircumflex" unicode="&#xe2;" horiz-adv-x="1319" 
d="M309 559q0 -139 92.5 -232.5t225.5 -93.5q121 0 213 94t92 220q0 134 -92.5 230.5t-216.5 96.5q-130 0 -222 -91.5t-92 -223.5zM961 0v135q-46 -82 -129.5 -121t-213.5 -39q-244 0 -407.5 166.5t-163.5 413.5q0 116 41 220t117 183q82 87 182 128.5t225 41.5
q120 0 206.5 -40t139.5 -121v133h250v-1100h-247zM362 1243l188 350h218l188 -350h-131l-166 211l-168 -211h-129z" />
    <glyph glyph-name="adieresis" unicode="&#xe4;" horiz-adv-x="1319" 
d="M309 559q0 -139 92.5 -232.5t225.5 -93.5q121 0 213 94t92 220q0 134 -92.5 230.5t-216.5 96.5q-130 0 -222 -91.5t-92 -223.5zM961 0v135q-46 -82 -129.5 -121t-213.5 -39q-244 0 -407.5 166.5t-163.5 413.5q0 116 41 220t117 183q82 87 182 128.5t225 41.5
q120 0 206.5 -40t139.5 -121v133h250v-1100h-247zM731 1294v230h204v-230h-204zM383 1294v230h204v-230h-204z" />
    <glyph glyph-name="atilde" unicode="&#xe3;" horiz-adv-x="1319" 
d="M309 559q0 -139 92.5 -232.5t225.5 -93.5q121 0 213 94t92 220q0 134 -92.5 230.5t-216.5 96.5q-130 0 -222 -91.5t-92 -223.5zM961 0v135q-46 -82 -129.5 -121t-213.5 -39q-244 0 -407.5 166.5t-163.5 413.5q0 116 41 220t117 183q82 87 182 128.5t225 41.5
q120 0 206.5 -40t139.5 -121v133h250v-1100h-247zM960 1536q-23 -117 -71 -171t-128 -54q-19 0 -36.5 2t-32.5 6l-84 24q-3 1 -7 2q-42 11 -57 11q-33 0 -54 -16.5t-32 -51.5h-100q20 110 67.5 163.5t124.5 53.5q18 0 39 -3t45 -9l89 -25q20 -5 30.5 -6.5t20.5 -1.5
q31 0 54 20.5t32 55.5h100z" />
    <glyph glyph-name="aring" unicode="&#xe5;" horiz-adv-x="1319" 
d="M514 1415q0 -45 31 -76.5t76 -31.5q44 0 75 31.5t31 76.5t-31 76t-75 31q-45 0 -76 -31t-31 -76zM391 1415q0 95 67 162.5t163 67.5q95 0 162 -67.5t67 -162.5t-67 -162t-162 -67q-96 0 -163 67t-67 162zM961 0v135q-46 -82 -129.5 -121t-213.5 -39q-244 0 -407.5 166.5
t-163.5 413.5q0 116 41 220t117 183q82 87 182 128.5t225 41.5q120 0 206.5 -40t139.5 -121v133h250v-1100h-247zM309 559q0 -139 92.5 -232.5t225.5 -93.5q121 0 213 94t92 220q0 134 -92.5 230.5t-216.5 96.5q-130 0 -222 -91.5t-92 -223.5z" />
    <glyph glyph-name="ccedilla" unicode="&#xe7;" horiz-adv-x="1241" 
d="M905 709q-46 86 -117.5 129t-169.5 43q-130 0 -217.5 -94t-87.5 -236q0 -140 89.5 -233t224.5 -93q104 0 173 44.5t103 133.5h273q-50 -202 -195 -317t-352 -115q-122 0 -226 43.5t-188 128.5q-78 80 -122 187.5t-44 218.5q0 116 40 217t118 182q86 91 194 138t232 47
q202 0 350 -115t195 -309h-273zM369 -434v119q83 -22 146.5 -32.5t107.5 -10.5q53 0 80.5 19t27.5 56q0 42 -33.5 61t-107.5 19q-7 0 -21.5 -1t-21.5 -1v205h92v-94h15q118 0 176.5 -48t58.5 -145q0 -90 -65 -140t-185 -50q-55 0 -123.5 11t-146.5 32z" />
    <glyph glyph-name="eacute" unicode="&#xe9;" horiz-adv-x="1241" 
d="M920 672q-33 110 -110.5 167.5t-195.5 57.5q-102 0 -183 -62t-109 -163h598zM313 469q13 -119 94.5 -187.5t210.5 -68.5q86 0 154.5 36t108.5 101h276q-70 -180 -209.5 -279.5t-322.5 -99.5q-123 0 -226.5 43.5t-185.5 128.5q-78 81 -121 187.5t-43 218.5
q0 115 39.5 216.5t116.5 182.5q84 89 190 137t219 48q143 0 267 -65t211 -183q53 -71 78.5 -159t25.5 -202q0 -9 -1 -27.5t-1 -27.5h-881zM474 1243l204 348h222l-295 -348h-131z" />
    <glyph glyph-name="egrave" unicode="&#xe8;" horiz-adv-x="1241" 
d="M920 672q-33 110 -110.5 167.5t-195.5 57.5q-102 0 -183 -62t-109 -163h598zM313 469q13 -119 94.5 -187.5t210.5 -68.5q86 0 154.5 36t108.5 101h276q-70 -180 -209.5 -279.5t-322.5 -99.5q-123 0 -226.5 43.5t-185.5 128.5q-78 81 -121 187.5t-43 218.5
q0 115 39.5 216.5t116.5 182.5q84 89 190 137t219 48q143 0 267 -65t211 -183q53 -71 78.5 -159t25.5 -202q0 -9 -1 -27.5t-1 -27.5h-881zM768 1243h-131l-295 348h222z" />
    <glyph glyph-name="ecircumflex" unicode="&#xea;" horiz-adv-x="1241" 
d="M920 672q-33 110 -110.5 167.5t-195.5 57.5q-102 0 -183 -62t-109 -163h598zM313 469q13 -119 94.5 -187.5t210.5 -68.5q86 0 154.5 36t108.5 101h276q-70 -180 -209.5 -279.5t-322.5 -99.5q-123 0 -226.5 43.5t-185.5 128.5q-78 81 -121 187.5t-43 218.5
q0 115 39.5 216.5t116.5 182.5q84 89 190 137t219 48q143 0 267 -65t211 -183q53 -71 78.5 -159t25.5 -202q0 -9 -1 -27.5t-1 -27.5h-881zM324 1243l188 350h218l188 -350h-131l-166 211l-168 -211h-129z" />
    <glyph glyph-name="edieresis" unicode="&#xeb;" horiz-adv-x="1241" 
d="M920 672q-33 110 -110.5 167.5t-195.5 57.5q-102 0 -183 -62t-109 -163h598zM313 469q13 -119 94.5 -187.5t210.5 -68.5q86 0 154.5 36t108.5 101h276q-70 -180 -209.5 -279.5t-322.5 -99.5q-123 0 -226.5 43.5t-185.5 128.5q-78 81 -121 187.5t-43 218.5
q0 115 39.5 216.5t116.5 182.5q84 89 190 137t219 48q143 0 267 -65t211 -183q53 -71 78.5 -159t25.5 -202q0 -9 -1 -27.5t-1 -27.5h-881zM693 1294v230h204v-230h-204zM345 1294v230h204v-230h-204z" />
    <glyph glyph-name="iacute" unicode="&#xed;" horiz-adv-x="479" 
d="M115 0v1100h250v-1100h-250zM93 1243l204 348h222l-295 -348h-131z" />
    <glyph glyph-name="igrave" unicode="&#xec;" horiz-adv-x="479" 
d="M115 0v1100h250v-1100h-250zM387 1243h-131l-295 348h222z" />
    <glyph glyph-name="icircumflex" unicode="&#xee;" horiz-adv-x="479" 
d="M115 0v1100h250v-1100h-250zM-57 1243l188 350h218l188 -350h-131l-166 211l-168 -211h-129z" />
    <glyph glyph-name="idieresis" unicode="&#xef;" horiz-adv-x="479" 
d="M115 0v1100h250v-1100h-250zM312 1294v230h204v-230h-204zM-36 1294v230h204v-230h-204z" />
    <glyph glyph-name="ntilde" unicode="&#xf1;" horiz-adv-x="1194" 
d="M365 1100v-125q56 75 128.5 111t165.5 36q119 0 207.5 -45t147.5 -135q38 -60 54.5 -136.5t16.5 -223.5v-582h-256v487q0 221 -51 303t-176 82q-128 0 -184 -90.5t-56 -310.5v-471h-247v1100h250zM899 1536q-23 -117 -71 -171t-128 -54q-19 0 -36.5 2t-32.5 6l-84 24
q-3 1 -7 2q-42 11 -57 11q-33 0 -54 -16.5t-32 -51.5h-100q20 110 67.5 163.5t124.5 53.5q18 0 39 -3t45 -9l89 -25q20 -5 30.5 -6.5t20.5 -1.5q31 0 54 20.5t32 55.5h100z" />
    <glyph glyph-name="oacute" unicode="&#xf3;" horiz-adv-x="1247" 
d="M311 557q0 -153 84 -242.5t228 -89.5q142 0 226.5 91.5t84.5 246.5q0 139 -88.5 228.5t-222.5 89.5q-138 0 -225 -90.5t-87 -233.5zM47 555q0 116 42.5 220.5t123.5 185.5q83 83 187 127.5t216 44.5q119 0 219.5 -39.5t184.5 -118.5q86 -83 133 -191.5t47 -222.5
q0 -126 -41 -230t-123 -188q-82 -85 -187 -128.5t-228 -43.5q-124 0 -226 44t-186 132q-80 86 -121 189.5t-41 218.5zM478 1243l204 348h222l-295 -348h-131z" />
    <glyph glyph-name="ograve" unicode="&#xf2;" horiz-adv-x="1247" 
d="M311 557q0 -153 84 -242.5t228 -89.5q142 0 226.5 91.5t84.5 246.5q0 139 -88.5 228.5t-222.5 89.5q-138 0 -225 -90.5t-87 -233.5zM47 555q0 116 42.5 220.5t123.5 185.5q83 83 187 127.5t216 44.5q119 0 219.5 -39.5t184.5 -118.5q86 -83 133 -191.5t47 -222.5
q0 -126 -41 -230t-123 -188q-82 -85 -187 -128.5t-228 -43.5q-124 0 -226 44t-186 132q-80 86 -121 189.5t-41 218.5zM772 1243h-131l-295 348h222z" />
    <glyph glyph-name="ocircumflex" unicode="&#xf4;" horiz-adv-x="1247" 
d="M311 557q0 -153 84 -242.5t228 -89.5q142 0 226.5 91.5t84.5 246.5q0 139 -88.5 228.5t-222.5 89.5q-138 0 -225 -90.5t-87 -233.5zM47 555q0 116 42.5 220.5t123.5 185.5q83 83 187 127.5t216 44.5q119 0 219.5 -39.5t184.5 -118.5q86 -83 133 -191.5t47 -222.5
q0 -126 -41 -230t-123 -188q-82 -85 -187 -128.5t-228 -43.5q-124 0 -226 44t-186 132q-80 86 -121 189.5t-41 218.5zM328 1243l188 350h218l188 -350h-131l-166 211l-168 -211h-129z" />
    <glyph glyph-name="odieresis" unicode="&#xf6;" horiz-adv-x="1247" 
d="M311 557q0 -153 84 -242.5t228 -89.5q142 0 226.5 91.5t84.5 246.5q0 139 -88.5 228.5t-222.5 89.5q-138 0 -225 -90.5t-87 -233.5zM47 555q0 116 42.5 220.5t123.5 185.5q83 83 187 127.5t216 44.5q119 0 219.5 -39.5t184.5 -118.5q86 -83 133 -191.5t47 -222.5
q0 -126 -41 -230t-123 -188q-82 -85 -187 -128.5t-228 -43.5q-124 0 -226 44t-186 132q-80 86 -121 189.5t-41 218.5zM697 1294v230h204v-230h-204zM349 1294v230h204v-230h-204z" />
    <glyph glyph-name="otilde" unicode="&#xf5;" horiz-adv-x="1247" 
d="M311 557q0 -153 84 -242.5t228 -89.5q142 0 226.5 91.5t84.5 246.5q0 139 -88.5 228.5t-222.5 89.5q-138 0 -225 -90.5t-87 -233.5zM47 555q0 116 42.5 220.5t123.5 185.5q83 83 187 127.5t216 44.5q119 0 219.5 -39.5t184.5 -118.5q86 -83 133 -191.5t47 -222.5
q0 -126 -41 -230t-123 -188q-82 -85 -187 -128.5t-228 -43.5q-124 0 -226 44t-186 132q-80 86 -121 189.5t-41 218.5zM926 1536q-23 -117 -71 -171t-128 -54q-19 0 -36.5 2t-32.5 6l-84 24q-3 1 -7 2q-42 11 -57 11q-33 0 -54 -16.5t-32 -51.5h-100q20 110 67.5 163.5
t124.5 53.5q18 0 39 -3t45 -9l89 -25q20 -5 30.5 -6.5t20.5 -1.5q31 0 54 20.5t32 55.5h100z" />
    <glyph glyph-name="uacute" unicode="&#xfa;" horiz-adv-x="1194" 
d="M829 0v119q-56 -75 -128.5 -111.5t-165.5 -36.5q-207 0 -318 127t-111 365v637h259v-494q0 -223 51 -305t176 -82q128 0 183.5 92t55.5 312v477h252v-1100h-254zM451 1243l204 348h222l-295 -348h-131z" />
    <glyph glyph-name="ugrave" unicode="&#xf9;" horiz-adv-x="1194" 
d="M829 0v119q-56 -75 -128.5 -111.5t-165.5 -36.5q-207 0 -318 127t-111 365v637h259v-494q0 -223 51 -305t176 -82q128 0 183.5 92t55.5 312v477h252v-1100h-254zM745 1243h-131l-295 348h222z" />
    <glyph glyph-name="ucircumflex" unicode="&#xfb;" horiz-adv-x="1194" 
d="M829 0v119q-56 -75 -128.5 -111.5t-165.5 -36.5q-207 0 -318 127t-111 365v637h259v-494q0 -223 51 -305t176 -82q128 0 183.5 92t55.5 312v477h252v-1100h-254zM301 1243l188 350h218l188 -350h-131l-166 211l-168 -211h-129z" />
    <glyph glyph-name="udieresis" unicode="&#xfc;" horiz-adv-x="1194" 
d="M829 0v119q-56 -75 -128.5 -111.5t-165.5 -36.5q-207 0 -318 127t-111 365v637h259v-494q0 -223 51 -305t176 -82q128 0 183.5 92t55.5 312v477h252v-1100h-254zM670 1294v230h204v-230h-204zM322 1294v230h204v-230h-204z" />
    <glyph glyph-name="dagger" unicode="&#x2020;" 
d="M393 -233v1071h-334v188h334v430h238v-430h334v-188h-334v-1071h-238z" />
    <glyph glyph-name="degree" unicode="&#xb0;" horiz-adv-x="674" 
d="M338 1350q-77 0 -131.5 -54t-54.5 -131q0 -76 54.5 -131t131.5 -55t130.5 54.5t53.5 131.5t-53.5 131t-130.5 54zM338 1460q121 0 208 -87t87 -210q0 -121 -87 -208t-210 -87t-208 85.5t-85 209.5q0 125 86 211t209 86z" />
    <glyph glyph-name="cent" unicode="&#xa2;" horiz-adv-x="1190" 
d="M856 877q-35 91 -100 138.5t-156 47.5q-114 0 -193 -98t-79 -244q0 -147 80 -243.5t200 -96.5q85 0 149 50t97 142h264q-35 -165 -136.5 -272.5t-264.5 -153.5v-229h-223v232q-192 53 -308 210.5t-116 362.5q0 209 113.5 361.5t310.5 207.5v217h223v-213
q163 -35 265.5 -142t137.5 -277h-264z" />
    <glyph glyph-name="sterling" unicode="&#xa3;" horiz-adv-x="1190" 
d="M877 643h-304q44 -78 61 -133.5t17 -112.5q0 -50 -8.5 -87t-27.5 -70q15 -4 26 -5.5t21 -1.5q94 0 154.5 66t60.5 172q0 25 -3 47t-7 41h253q5 -27 7.5 -53.5t2.5 -54.5q0 -219 -127.5 -344t-353.5 -125q-36 0 -103 4q-25 1 -38 2l-418 12v242h234q29 22 44 60.5t15 94.5
q0 60 -24.5 117.5t-79.5 128.5h-218v234h105q-12 35 -18.5 67t-6.5 62q0 203 137 341t340 138q192 0 316.5 -100.5t157.5 -280.5h-293q-18 59 -65.5 93t-110.5 34q-84 0 -139.5 -53.5t-55.5 -130.5q0 -32 12 -74t37 -96h400v-234z" />
    <glyph glyph-name="section" unicode="&#xa7;" 
d="M659 461q41 23 60.5 50t19.5 60q0 41 -24.5 70t-93.5 64l-265 135q-38 -24 -59 -54t-21 -63q0 -38 29.5 -68t130.5 -82zM115 133h247q8 -78 46.5 -117t109.5 -39q67 0 105.5 32.5t38.5 86.5q0 81 -155 155q-32 16 -51 26l-177 90q-113 56 -169.5 131t-56.5 168
q0 88 43.5 155t128.5 111q-50 45 -74 98.5t-24 118.5q0 151 103.5 243.5t273.5 92.5q177 0 277 -90.5t101 -251.5h-235q-2 68 -39 102.5t-108 34.5q-62 0 -95.5 -27t-33.5 -75q0 -40 38.5 -73.5t143.5 -82.5l168 -80q128 -60 189 -135t61 -172q0 -91 -45.5 -158.5
t-130.5 -103.5q58 -51 87 -113t29 -137q0 -154 -110 -254t-283 -100q-191 0 -293.5 92.5t-109.5 271.5z" />
    <glyph glyph-name="bullet" unicode="&#x2022;" horiz-adv-x="1208" 
d="M307 762q0 123 87 209t210 86q122 0 208.5 -86.5t86.5 -208.5t-87.5 -209.5t-209.5 -87.5q-123 0 -209 87t-86 210z" />
    <glyph glyph-name="paragraph" unicode="&#xb6;" 
d="M969 1479v-99h-117v-1380h-129v1380h-168v-1380h-131v784q-168 6 -268.5 101t-100.5 245q0 158 107 253.5t284 95.5h523z" />
    <glyph glyph-name="germandbls" unicode="&#xdf;" horiz-adv-x="1233" 
d="M115 0v969q0 259 106 383.5t328 124.5q196 0 318 -112.5t122 -291.5q0 -79 -29 -141t-92 -117q156 -43 238 -144.5t82 -252.5q0 -190 -122 -318.5t-304 -128.5q-144 0 -246.5 68t-150.5 194v-233h-250zM543 856q96 0 150.5 55.5t54.5 153.5q0 89 -54 147t-135 58
q-104 0 -149 -62t-45 -211v-608h137q16 -93 72.5 -147t138.5 -54q89 0 157 66.5t68 153.5q0 116 -80 173.5t-242 57.5q-28 0 -43.5 -0.5t-29.5 -1.5v219z" />
    <glyph glyph-name="registered" unicode="&#xae;" horiz-adv-x="1706" 
d="M729 1047v-261h117q100 0 146 30.5t46 96.5q0 69 -48 101.5t-152 32.5h-109zM551 1159h319q173 0 262 -57t89 -168q0 -91 -48 -150.5t-137 -78.5l185 -375h-199l-164 346h-129v-346h-178v829zM854 1362q-129 0 -240 -45.5t-200 -134.5q-92 -94 -141.5 -210t-49.5 -241
t47 -238.5t136 -203.5q90 -91 204 -140t234 -49q130 0 246.5 47t209.5 138q89 86 137 198.5t48 237.5q0 133 -45.5 247.5t-134.5 205.5q-93 92 -207.5 140t-243.5 48zM852 1470q153 0 288.5 -56t241.5 -165q103 -104 157 -236.5t54 -281.5q0 -153 -55.5 -287t-161.5 -237
q-108 -105 -243 -161t-281 -56q-147 0 -282.5 57.5t-241.5 165.5q-105 106 -160 239t-55 279q0 147 57.5 284t165.5 245q104 104 234.5 157t281.5 53z" />
    <glyph glyph-name="copyright" unicode="&#xa9;" horiz-adv-x="1706" 
d="M1206 903h-166q-10 74 -60 114t-130 40q-99 0 -155 -86.5t-56 -239.5q0 -152 57.5 -234.5t163.5 -82.5q80 0 129 43.5t60 124.5h165q-7 -135 -106.5 -217t-253.5 -82q-183 0 -290 119t-107 323q0 208 109.5 331.5t291.5 123.5q147 0 243 -77t105 -200zM854 1362
q-130 0 -243 -46.5t-201 -135.5q-90 -92 -138.5 -208t-48.5 -241q0 -126 48 -240t139 -204q90 -91 204.5 -139t239.5 -48t240 48.5t209 140.5q89 88 135.5 200.5t46.5 241.5t-47 243.5t-135 203.5q-91 90 -205 137t-244 47zM852 1470q152 0 286 -55t240 -162
q105 -105 160 -238.5t55 -283.5q0 -153 -54.5 -286t-158.5 -234q-108 -107 -244.5 -164t-283.5 -57q-146 0 -280 56.5t-240 162.5q-107 106 -163 240.5t-56 281.5q0 145 57 280.5t164 243.5q105 107 235.5 161t282.5 54z" />
    <glyph glyph-name="trademark" unicode="&#x2122;" horiz-adv-x="1706" 
d="M809 1460h170l141 -360l133 360h170v-542h-114v428l-160 -428h-59l-166 428v-428h-115v542zM225 1460h467v-94h-168v-448h-129v448h-170v94z" />
    <glyph glyph-name="acute" unicode="&#xb4;" 
d="M365 1243l204 348h222l-295 -348h-131z" />
    <glyph glyph-name="dieresis" unicode="&#xa8;" 
d="M584 1294v230h204v-230h-204zM236 1294v230h204v-230h-204z" />
    <glyph glyph-name="notequal" unicode="&#x2260;" horiz-adv-x="1706" 
d="M1204 1212l123 -100l-170 -215h295v-162h-403l-197 -250h600v-161h-707l-249 -314l-123 99l170 215h-289v161h393l199 250h-592v162h700z" />
    <glyph glyph-name="AE" unicode="&#xc6;" horiz-adv-x="1706" 
d="M805 0v389h-420l-188 -389h-320l778 1456h934v-256h-502v-332h502v-252h-502v-360h502v-256h-784zM805 659v521h-35l-254 -521h289z" />
    <glyph glyph-name="Oslash" unicode="&#xd8;" horiz-adv-x="1612" 
d="M1006 1145q-51 23 -98.5 34t-94.5 11q-197 0 -328 -131.5t-131 -329.5q0 -66 19.5 -126t60.5 -118zM588 326q37 -30 89.5 -45t121.5 -15q196 0 326 135t130 340q0 72 -20 136t-61 124zM391 98l-225 -258l-164 146l225 262q-86 109 -128 231t-42 264q0 152 57 286t167 241
q108 105 241.5 159t286.5 54q108 0 204 -27.5t183 -83.5l211 236l168 -146l-205 -237q91 -104 137.5 -227t46.5 -261q0 -154 -53.5 -291t-157.5 -245q-108 -113 -249 -171.5t-306 -58.5q-108 0 -205.5 31.5t-191.5 95.5z" />
    <glyph glyph-name="infinity" unicode="&#x221e;" horiz-adv-x="1706" 
d="M928 559q45 -81 109.5 -122.5t146.5 -41.5q97 0 159 61.5t62 157.5q0 95 -57 158.5t-142 63.5q-78 0 -142 -63.5t-136 -213.5zM780 662q-46 81 -111 123t-145 42q-98 0 -159.5 -62t-61.5 -159q0 -94 56.5 -156.5t140.5 -62.5q80 0 144.5 62.5t135.5 212.5zM862 471
q-71 -135 -148.5 -197.5t-172.5 -62.5q-137 0 -232.5 114.5t-95.5 284.5q0 179 85 289.5t220 110.5q93 0 168.5 -60t157.5 -200q71 139 149.5 200.5t184.5 61.5q127 0 222 -116t95 -284q0 -178 -84.5 -288.5t-220.5 -110.5q-92 0 -166.5 57.5t-161.5 200.5z" />
    <glyph glyph-name="plusminus" unicode="&#xb1;" horiz-adv-x="1706" 
d="M254 182h1198v-168h-1198v168zM768 1206h170v-334h514v-165h-514v-334h-170v334h-514v165h514v334z" />
    <glyph glyph-name="lessequal" unicode="&#x2264;" horiz-adv-x="1706" 
d="M260 178h1186v-166h-1186v166zM1446 1223v-176l-889 -287l889 -287v-176l-1186 389v145z" />
    <glyph glyph-name="greaterequal" unicode="&#x2265;" horiz-adv-x="1706" 
d="M260 178h1188v-166h-1188v166zM260 1223l1186 -392v-145l-1186 -389v176l891 287l-891 287v176z" />
    <glyph glyph-name="yen" unicode="&#xa5;" horiz-adv-x="1190" 
d="M1153 1448l-180 -393h147v-176h-229l-78 -168h307v-176h-391v-535h-274v535h-392v176h308l-76 168h-232v176h152l-178 393h295l264 -637l264 637h293z" />
    <glyph glyph-name="mu" unicode="&#xb5;" horiz-adv-x="1208" 
d="M205 1081h229l-125 -635q-6 -29 -9 -55t-3 -49q0 -96 46.5 -146.5t135.5 -50.5q122 0 193.5 88.5t111.5 292.5l109 555h225l-145 -739q-10 -49 -14.5 -81.5t-4.5 -51.5q0 -36 15.5 -51t52.5 -15q13 0 20.5 0.5t13.5 1.5l-32 -159q-32 -9 -68.5 -13t-81.5 -4
q-74 0 -111.5 31.5t-37.5 93.5v15q-41 -67 -108 -104.5t-146 -37.5q-81 0 -137.5 26t-97.5 83l-99 -506h-229z" />
    <glyph glyph-name="partialdiff" unicode="&#x2202;" horiz-adv-x="1075" 
d="M758 639q17 103 26 186.5t9 147.5q0 120 -29 174.5t-92 54.5q-62 0 -147 -58.5t-122 -58.5t-64.5 26t-27.5 60q0 66 79 115t200 49q176 0 287.5 -159t111.5 -422q0 -338 -150 -558.5t-376 -220.5q-161 0 -266 112t-105 286q0 193 113 322.5t278 129.5q101 0 167.5 -45
t107.5 -141zM705 504q0 116 -41 178.5t-117 62.5q-105 0 -174.5 -131.5t-69.5 -337.5q0 -116 40.5 -177.5t117.5 -61.5q105 0 174.5 132.5t69.5 334.5z" />
    <glyph glyph-name="summation" unicode="&#x2211;" horiz-adv-x="1421" 
d="M61 1473h1280v-226h-921l647 -684l-661 -729h974v-227h-1347v160l712 786l-684 719v201z" />
    <glyph glyph-name="product" unicode="&#x220f;" horiz-adv-x="1579" 
d="M154 1473h1267v-1866h-286v1622h-695v-1622h-286v1866z" />
    <glyph glyph-name="pi" unicode="&#x3c0;" horiz-adv-x="1368" 
d="M360 889h-45q-54 0 -83.5 -31.5t-39.5 -99.5h-174q28 187 100 255t242 68h953l-39 -192h-193l-84 -437q-2 -13 -8 -41q-22 -113 -22 -147q0 -58 23 -82t77 -24q18 0 42.5 2.5t59.5 7.5l-34 -168q-29 -8 -61 -12t-75 -4q-139 0 -202.5 48t-63.5 154q0 77 52 344l1 6
l70 353h-268l-174 -889h-226z" />
    <glyph glyph-name="integral" unicode="&#x222b;" horiz-adv-x="1120" 
d="M324 -258q106 0 122 692q2 81 3 123q13 538 113 766.5t312 228.5q87 0 143 -45.5t56 -111.5q0 -61 -34 -95t-95 -34q-45 0 -74.5 22.5t-40.5 65.5q-4 17 -6 45q-3 40 -26 41q-101 0 -119 -615q-5 -161 -8 -249q-10 -280 -30.5 -427t-59.5 -245q-55 -136 -139.5 -205.5
t-194.5 -69.5q-87 0 -142 44t-55 112q0 63 35.5 97t99.5 34q39 0 66 -18t41 -54q6 -16 9 -59t24 -43z" />
    <glyph glyph-name="ordfeminine" unicode="&#xaa;" horiz-adv-x="989" 
d="M231 1077q0 -96 70 -161.5t170 -65.5q90 0 158.5 65.5t68.5 153.5q0 94 -69 161.5t-162 67.5q-97 0 -166.5 -64.5t-69.5 -156.5zM721 686v94q-35 -57 -97 -83.5t-159 -26.5q-184 0 -307 116t-123 289q0 79 30.5 152t88.5 131q62 60 136.5 89.5t168.5 29.5
q91 0 155.5 -28.5t104.5 -86.5v94h188v-770h-186z" />
    <glyph glyph-name="ordmasculine" unicode="&#xba;" horiz-adv-x="936" 
d="M233 1075q0 -106 63.5 -168.5t170.5 -62.5t170 64t63 173q0 97 -66 159.5t-167 62.5q-103 0 -168.5 -63.5t-65.5 -164.5zM35 1075q0 81 32 154t93 129q63 59 141 90t162 31q89 0 164.5 -27.5t138.5 -83.5q65 -58 100 -133.5t35 -155.5q0 -87 -30.5 -159.5t-92.5 -133.5
q-63 -59 -142 -89.5t-171 -30.5t-168 30.5t-139 91.5q-61 61 -92 133.5t-31 153.5z" />
    <glyph glyph-name="Omega" unicode="&#x3a9;" horiz-adv-x="1569" 
d="M1194 213h305v-213h-602v229q160 94 242 244.5t82 351.5q0 210 -121 341.5t-316 131.5q-197 0 -316.5 -132.5t-119.5 -352.5q0 -191 84 -342t240 -242v-229h-602v213h305q-144 130 -211.5 274t-67.5 322q0 314 190.5 508t497.5 194q303 0 496 -192.5t193 -493.5
q0 -190 -65.5 -333t-213.5 -279z" />
    <glyph glyph-name="ae" unicode="&#xe6;" horiz-adv-x="2124" 
d="M1163 0h-196v170q-48 -99 -129.5 -147t-204.5 -48q-255 0 -420.5 164.5t-165.5 415.5q0 115 40.5 218.5t117.5 184.5q82 87 182 128.5t225 41.5q129 0 214.5 -46.5t140.5 -147.5v166h196v-166q61 97 151 145.5t210 48.5q244 0 399.5 -169.5t155.5 -440.5q0 -8 -1 -25.5
t-1 -25.5h-879q11 -118 93 -187t212 -69q84 0 151 35t109 100h277q-74 -183 -213.5 -281t-327.5 -98q-125 0 -208 50.5t-128 152.5v-170zM1802 670q-32 110 -110 167.5t-195 57.5q-102 0 -182 -61.5t-109 -163.5h596zM309 559q0 -139 92.5 -232.5t225.5 -93.5q121 0 213 94
t92 220q0 134 -92.5 230.5t-216.5 96.5q-130 0 -222 -91.5t-92 -223.5z" />
    <glyph glyph-name="oslash" unicode="&#xf8;" horiz-adv-x="1247" 
d="M754 856q-30 13 -59.5 19t-61.5 6q-147 0 -234.5 -91t-87.5 -245q0 -49 10.5 -89t32.5 -77zM918 1053l159 188l152 -121l-166 -196q67 -77 101 -172.5t34 -208.5q0 -112 -42 -214.5t-122 -183.5q-84 -85 -188 -128.5t-225 -43.5q-86 0 -156.5 18.5t-134.5 57.5l-160 -192
l-150 127l166 194q-70 86 -104.5 178t-34.5 193q0 89 24.5 171t71.5 152q81 122 206.5 190t266.5 68q82 0 156 -19t146 -58zM496 250q34 -13 65 -19t60 -6q137 0 224 90.5t87 235.5q0 56 -9.5 97.5t-29.5 74.5z" />
    <glyph glyph-name="questiondown" unicode="&#xbf;" horiz-adv-x="1042" 
d="M696 1085q0 -94 -30.5 -174.5t-104.5 -173.5q-14 -18 -63 -67.5t-76 -85.5q-18 -25 -26.5 -53.5t-8.5 -67.5q0 -98 50.5 -152.5t140.5 -54.5q78 0 126 59t50 158h268q-2 -210 -131 -341.5t-330 -131.5t-332 126t-131 320q0 173 162 320q20 18 28 26q84 78 117 144t35 149
h256zM696 1485v-277h-256v277h256z" />
    <glyph glyph-name="exclamdown" unicode="&#xa1;" horiz-adv-x="627" 
d="M184 1057h256v-1057h-256v1057zM184 1456h256v-276h-256v276z" />
    <glyph glyph-name="logicalnot" unicode="&#xac;" horiz-adv-x="1706" 
d="M254 862h1198v-502h-166v336h-1032v166z" />
    <glyph glyph-name="radical" unicode="&#x221a;" horiz-adv-x="1323" 
d="M1128 1675h197v-110h-108l-594 -1606h-82l-316 872l-131 -49l-28 95l305 108l247 -688z" />
    <glyph glyph-name="florin" unicode="&#x192;" horiz-adv-x="1190" 
d="M657 -45q-18 -210 -113 -292.5t-319 -82.5q-39 0 -59 0.5t-39 1.5l23 256h45q115 0 156.5 37t51.5 168l54 619h-246l20 233h246l17 172q17 170 48 238t91 112q46 34 123 51t184 17q35 0 52 -0.5t34 -2.5l-20 -253q-9 0 -25 1t-23 1q-111 0 -154.5 -41.5t-53.5 -169.5
l-11 -125h262l-20 -233h-262z" />
    <glyph glyph-name="approxequal" unicode="&#x2248;" horiz-adv-x="1706" 
d="M1530 592v-186q-107 -73 -200 -106.5t-189 -33.5q-89 0 -279.5 66.5t-298.5 66.5q-84 0 -173.5 -36t-211.5 -121v184q112 75 206.5 110t180.5 35q118 0 309 -67.5t277 -67.5q83 0 172 36.5t207 119.5zM1530 979v-184q-109 -75 -201.5 -108.5t-187.5 -33.5
q-88 0 -278.5 67.5t-299.5 67.5q-82 0 -170 -35t-215 -122v184q109 73 205 109.5t182 36.5q120 0 310 -68t268 -68q92 0 181 35t206 119z" />
    <glyph glyph-name="Delta" unicode="&#x2206;" horiz-adv-x="1395" 
d="M698 1196l-379 -983h756zM569 1473h256l574 -1473h-1403z" />
    <glyph glyph-name="guillemotleft" unicode="&#xab;" horiz-adv-x="1114" 
d="M963 870l-246 -321l246 -320h-199l-248 320l248 321h199zM573 870l-245 -321l245 -320h-198l-248 320l248 321h198z" />
    <glyph glyph-name="guillemotright" unicode="&#xbb;" horiz-adv-x="1114" 
d="M541 870h198l246 -321l-246 -320h-198l245 320zM152 870h198l248 -321l-248 -320h-198l245 320z" />
    <glyph glyph-name="ellipsis" unicode="&#x2026;" horiz-adv-x="2048" 
d="M469 0h-256v274h256v-274zM1151 0h-256v274h256v-274zM1835 0h-256v274h256v-274z" />
    <glyph glyph-name="nonbreakingspace" unicode="&#xa0;" horiz-adv-x="1190" 
 />
    <glyph glyph-name="Agrave" unicode="&#xc0;" horiz-adv-x="1233" 
d="M778 575l-172 469l-176 -469h348zM332 305l-113 -305h-295l565 1456h246l557 -1456h-305l-115 305h-540zM763 1593h-131l-295 348h222z" />
    <glyph glyph-name="Atilde" unicode="&#xc3;" horiz-adv-x="1233" 
d="M778 575l-172 469l-176 -469h348zM332 305l-113 -305h-295l565 1456h246l557 -1456h-305l-115 305h-540zM917 1886q-23 -117 -71 -171t-128 -54q-19 0 -36.5 2t-32.5 6l-84 24q-3 1 -7 2q-42 11 -57 11q-33 0 -54 -16.5t-32 -51.5h-100q20 110 67.5 163.5t124.5 53.5
q18 0 39 -3t45 -9l89 -25q20 -5 30.5 -6.5t20.5 -1.5q31 0 54 20.5t32 55.5h100z" />
    <glyph glyph-name="Otilde" unicode="&#xd5;" horiz-adv-x="1612" 
d="M356 741q0 -94 31 -175t92 -148q67 -73 152 -112.5t176 -39.5q191 0 320.5 136t129.5 339q0 186 -130.5 317.5t-313.5 131.5q-191 0 -324 -131t-133 -318zM57 731q0 120 32 226.5t95 199.5q108 157 271 242.5t356 85.5q145 0 279.5 -56t240.5 -161q109 -109 166 -245
t57 -286q0 -156 -53.5 -293t-157.5 -243q-105 -111 -244.5 -170.5t-291.5 -59.5q-163 0 -300 58t-243 172q-102 108 -154.5 242.5t-52.5 287.5zM1108 1886q-23 -117 -71 -171t-128 -54q-19 0 -36.5 2t-32.5 6l-84 24q-3 1 -7 2q-42 11 -57 11q-33 0 -54 -16.5t-32 -51.5
h-100q20 110 67.5 163.5t124.5 53.5q18 0 39 -3t45 -9l89 -25q20 -5 30.5 -6.5t20.5 -1.5q31 0 54 20.5t32 55.5h100z" />
    <glyph glyph-name="OE" unicode="&#x152;" horiz-adv-x="2150" 
d="M1255 1456h779v-256h-504v-332h504v-252h-504v-360h504v-256h-779v166q-91 -96 -205.5 -143.5t-254.5 -47.5q-117 0 -221 32t-193 95q-158 112 -241 276t-83 365q0 152 57 286t167 241q108 105 239 158t285 53q139 0 250 -47.5t200 -145.5v168zM813 1190
q-194 0 -326.5 -131t-132.5 -324q0 -87 31.5 -168t91.5 -147q67 -73 153.5 -113.5t176.5 -40.5q190 0 319 136t129 339q0 185 -130 317t-312 132z" />
    <glyph glyph-name="oe" unicode="&#x153;" horiz-adv-x="2124" 
d="M2077 467h-879q11 -118 93 -187t212 -69q84 0 151 35t109 100h277q-72 -181 -211 -280t-322 -99q-141 0 -253.5 53t-190.5 156q-88 -103 -196.5 -153t-245.5 -50q-124 0 -225.5 43.5t-186.5 133.5q-78 84 -119 188t-41 219t42.5 217.5t123.5 183.5q84 86 189.5 130.5
t224.5 44.5q131 0 240.5 -53t197.5 -158q95 106 202 158.5t228 52.5q142 0 266.5 -65t210.5 -183q53 -71 79 -160t26 -203q0 -9 -1 -27.5t-1 -27.5zM1802 670q-32 110 -110 167.5t-195 57.5q-102 0 -182 -61.5t-109 -163.5h596zM311 557q0 -152 84.5 -241t227.5 -89
q142 0 225.5 91.5t83.5 246.5q0 137 -88 225.5t-221 88.5q-138 0 -225 -90t-87 -232z" />
    <glyph glyph-name="endash" unicode="&#x2013;" 
d="M1024 647v-194h-1024v194h1024z" />
    <glyph glyph-name="emdash" unicode="&#x2014;" horiz-adv-x="2048" 
d="M0 453v194h2048v-194h-2048z" />
    <glyph glyph-name="quotedblleft" unicode="&#x201c;" horiz-adv-x="868" 
d="M504 946v262q0 142 61.5 208t194.5 68v-147q-45 -6 -64.5 -28.5t-19.5 -69.5v-16h84v-277h-256zM125 946v262q0 142 61.5 208t194.5 68v-147q-45 -6 -64.5 -28.5t-19.5 -69.5v-16h84v-277h-256z" />
    <glyph glyph-name="quotedblright" unicode="&#x201d;" horiz-adv-x="868" 
d="M381 1456v-262q0 -141 -61 -207t-195 -69v147q46 6 66 29.5t20 70.5v15h-86v276h256zM760 1456v-262q0 -141 -61 -207t-195 -69v147q46 6 66 29.5t20 70.5v15h-86v276h256z" />
    <glyph glyph-name="quoteleft" unicode="&#x2018;" horiz-adv-x="487" 
d="M125 946v262q0 142 61.5 208t194.5 68v-147q-45 -6 -64.5 -28.5t-19.5 -69.5v-16h84v-277h-256z" />
    <glyph glyph-name="quoteright" unicode="&#x2019;" horiz-adv-x="487" 
d="M381 1456v-262q0 -141 -61 -207t-195 -69v147q47 6 66.5 28t19.5 70v17h-86v276h256z" />
    <glyph glyph-name="divide" unicode="&#xf7;" horiz-adv-x="1706" 
d="M854 367q57 0 97 -40.5t40 -97.5q0 -56 -39.5 -95.5t-97.5 -39.5t-97.5 39t-39.5 96t40.5 97.5t96.5 40.5zM254 694h1198v-166h-1198v166zM854 1128q57 0 97 -41t40 -98q0 -56 -39.5 -95.5t-97.5 -39.5t-97.5 39t-39.5 96t40.5 98t96.5 41z" />
    <glyph glyph-name="lozenge" unicode="&#x25ca;" horiz-adv-x="1012" 
d="M506 1409l-385 -817l385 -825l385 825zM506 1653l500 -1061l-500 -1069l-500 1069z" />
    <glyph glyph-name="ydieresis" unicode="&#xff;" horiz-adv-x="1049" 
d="M-23 1100h271l268 -768l295 768h268l-594 -1456h-264l154 387zM596 1294v230h204v-230h-204zM248 1294v230h204v-230h-204z" />
    <glyph glyph-name="Ydieresis" unicode="&#x178;" horiz-adv-x="1010" 
d="M643 524v-524h-285v524l-417 932h313l252 -627l250 627h311zM578 1644v230h204v-230h-204zM230 1644v230h204v-230h-204z" />
    <glyph glyph-name="fraction" unicode="&#x2215;" horiz-adv-x="342" 
d="M537 1485h145l-875 -1516h-149z" />
    <glyph glyph-name="currency" unicode="&#xa4;" horiz-adv-x="1190" 
d="M41 631h109v166h-134l31 176h102q4 239 139 375.5t371 136.5q208 0 344 -114.5t158 -309.5h-282q-13 76 -73 120t-147 44q-106 0 -162 -63t-60 -187h378l-31 -176h-350v-168h330l-31 -176h-297q6 -121 56.5 -172.5t164.5 -51.5q95 0 148.5 46t68.5 141h289v-6
q0 -190 -147.5 -315.5t-358.5 -125.5q-225 0 -362 131t-143 353h-142z" />
    <glyph glyph-name="guilsinglleft" unicode="&#x2039;" horiz-adv-x="725" 
d="M573 870l-245 -321l245 -320h-198l-248 320l248 321h198z" />
    <glyph glyph-name="guilsinglright" unicode="&#x203a;" horiz-adv-x="725" 
d="M152 870h198l248 -321l-248 -320h-198l245 320z" />
    <glyph glyph-name="fi" unicode="&#xf001;" horiz-adv-x="1057" 
d="M692 0v1100h252v-1100h-252zM944 1212h-252v244h252v-244zM596 1100v-228h-184v-872h-248v872h-131v228h123v30q0 174 96 259.5t291 85.5q8 0 25.5 -1t27.5 -1v-230h-18q-87 0 -124.5 -28.5t-37.5 -94.5v-20h180z" />
    <glyph glyph-name="fl" unicode="&#xf002;" horiz-adv-x="1057" 
d="M944 0h-252v1456h252v-1456zM596 1100v-228h-184v-872h-248v872h-131v228h123v30q0 174 96 259.5t291 85.5q8 0 25.5 -1t27.5 -1v-230h-18q-87 0 -124.5 -28.5t-37.5 -94.5v-20h180z" />
    <glyph glyph-name="daggerdbl" unicode="&#x2021;" 
d="M393 -231v374h-334v189h334v555h-334v190h334v379h238v-379h334v-190h-334v-555h334v-189h-334v-374h-238z" />
    <glyph glyph-name="periodcentered" unicode="&#xb7;" horiz-adv-x="596" 
d="M160 729q0 57 40 96t97 39t97 -39t40 -96t-40 -97t-97 -40t-97 39.5t-40 97.5z" />
    <glyph glyph-name="quotesinglbase" unicode="&#x201a;" horiz-adv-x="487" 
d="M381 274v-260q0 -141 -61.5 -207t-194.5 -69v147q46 6 66 29.5t20 71.5v14h-86v274h256z" />
    <glyph glyph-name="quotedblbase" unicode="&#x201e;" horiz-adv-x="868" 
d="M342 274v-260q0 -141 -61.5 -207t-194.5 -69v147q45 6 64.5 29t19.5 70v16h-84v274h256zM721 274v-260q0 -141 -61.5 -207t-194.5 -69v147q45 6 64.5 29t19.5 70v16h-84v274h256z" />
    <glyph glyph-name="perthousand" unicode="&#x2030;" horiz-adv-x="2650" 
d="M987 330q0 72 27 137.5t78 116.5q50 50 115.5 77t138.5 27q72 0 137.5 -27t115.5 -77q51 -51 78 -116.5t27 -137.5q0 -73 -26.5 -138t-78.5 -116q-50 -51 -115.5 -78t-137.5 -27q-73 0 -138.5 27t-115.5 78q-51 50 -78 115.5t-27 138.5zM1178 330q0 -71 48.5 -119.5
t119.5 -48.5q70 0 118.5 48.5t48.5 119.5q0 70 -48.5 119t-118.5 49q-71 0 -119.5 -49t-48.5 -119zM281 1126q0 -70 48.5 -117.5t119.5 -47.5t119 47.5t48 117.5q0 71 -48.5 119.5t-118.5 48.5q-71 0 -119.5 -48.5t-48.5 -119.5zM90 1126q0 72 27.5 137.5t79.5 116.5
q51 51 115.5 78t136.5 27t137.5 -27t115.5 -78q52 -51 79.5 -116.5t27.5 -137.5t-27.5 -137t-79.5 -117q-50 -50 -115.5 -77t-137.5 -27t-136.5 27t-115.5 77q-52 52 -79.5 117.5t-27.5 136.5zM1849 330q0 71 27.5 136.5t79.5 117.5q51 51 115.5 77.5t136.5 26.5t137.5 -27
t116.5 -77q51 -52 78.5 -117.5t27.5 -136.5q0 -72 -27 -137t-79 -117q-51 -51 -116.5 -78t-137.5 -27t-136.5 27t-115.5 78q-52 51 -79.5 116.5t-27.5 137.5zM2042 330q0 -71 47.5 -119.5t118.5 -48.5q70 0 119 48.5t49 119.5q0 70 -49 119t-119 49q-71 0 -118.5 -48.5
t-47.5 -119.5zM1208 1485h162l-778 -1516h-162z" />
    <glyph glyph-name="Acircumflex" unicode="&#xc2;" horiz-adv-x="1233" 
d="M778 575l-172 469l-176 -469h348zM332 305l-113 -305h-295l565 1456h246l557 -1456h-305l-115 305h-540zM319 1593l188 350h218l188 -350h-131l-166 211l-168 -211h-129z" />
    <glyph glyph-name="Ecircumflex" unicode="&#xca;" 
d="M907 0h-786v1456h786v-256h-504v-332h504v-252h-504v-360h504v-256zM215 1593l188 350h218l188 -350h-131l-166 211l-168 -211h-129z" />
    <glyph glyph-name="Aacute" unicode="&#xc1;" horiz-adv-x="1233" 
d="M778 575l-172 469l-176 -469h348zM332 305l-113 -305h-295l565 1456h246l557 -1456h-305l-115 305h-540zM469 1593l204 348h222l-295 -348h-131z" />
    <glyph glyph-name="Edieresis" unicode="&#xcb;" 
d="M907 0h-786v1456h786v-256h-504v-332h504v-252h-504v-360h504v-256zM584 1644v230h204v-230h-204zM236 1644v230h204v-230h-204z" />
    <glyph glyph-name="Egrave" unicode="&#xc8;" 
d="M907 0h-786v1456h786v-256h-504v-332h504v-252h-504v-360h504v-256zM659 1593h-131l-295 348h222z" />
    <glyph glyph-name="Iacute" unicode="&#xcd;" horiz-adv-x="530" 
d="M123 0v1456h285v-1456h-285zM119 1593l204 348h222l-295 -348h-131z" />
    <glyph glyph-name="Icircumflex" unicode="&#xce;" horiz-adv-x="530" 
d="M123 0v1456h285v-1456h-285zM-31 1593l188 350h218l188 -350h-131l-166 211l-168 -211h-129z" />
    <glyph glyph-name="Idieresis" unicode="&#xcf;" horiz-adv-x="530" 
d="M123 0v1456h285v-1456h-285zM338 1644v230h204v-230h-204zM-10 1644v230h204v-230h-204z" />
    <glyph glyph-name="Igrave" unicode="&#xcc;" horiz-adv-x="530" 
d="M123 0v1456h285v-1456h-285zM413 1593h-131l-295 348h222z" />
    <glyph glyph-name="Oacute" unicode="&#xd3;" horiz-adv-x="1612" 
d="M356 741q0 -94 31 -175t92 -148q67 -73 152 -112.5t176 -39.5q191 0 320.5 136t129.5 339q0 186 -130.5 317.5t-313.5 131.5q-191 0 -324 -131t-133 -318zM57 731q0 120 32 226.5t95 199.5q108 157 271 242.5t356 85.5q145 0 279.5 -56t240.5 -161q109 -109 166 -245
t57 -286q0 -156 -53.5 -293t-157.5 -243q-105 -111 -244.5 -170.5t-291.5 -59.5q-163 0 -300 58t-243 172q-102 108 -154.5 242.5t-52.5 287.5zM660 1593l204 348h222l-295 -348h-131z" />
    <glyph glyph-name="Ocircumflex" unicode="&#xd4;" horiz-adv-x="1612" 
d="M356 741q0 -94 31 -175t92 -148q67 -73 152 -112.5t176 -39.5q191 0 320.5 136t129.5 339q0 186 -130.5 317.5t-313.5 131.5q-191 0 -324 -131t-133 -318zM57 731q0 120 32 226.5t95 199.5q108 157 271 242.5t356 85.5q145 0 279.5 -56t240.5 -161q109 -109 166 -245
t57 -286q0 -156 -53.5 -293t-157.5 -243q-105 -111 -244.5 -170.5t-291.5 -59.5q-163 0 -300 58t-243 172q-102 108 -154.5 242.5t-52.5 287.5zM510 1593l188 350h218l188 -350h-131l-166 211l-168 -211h-129z" />
    <glyph glyph-name="apple" unicode="&#xf000;" horiz-adv-x="1618" 
d="M836 1216q-1 6 -1.5 14t-0.5 23q0 124 95 229.5t236 131.5q1 -10 1.5 -23t0.5 -39q0 -131 -103.5 -234.5t-203.5 -103.5h-8q-3 0 -7.5 1t-8.5 1zM1505 403q-114 -247 -205 -342.5t-204 -95.5q-50 0 -131.5 33t-122.5 33q-45 0 -131 -33t-127 -33q-64 0 -128.5 44
t-129.5 132q-102 140 -157.5 295.5t-55.5 300.5q0 219 125 356.5t323 137.5q68 0 155 -34t124 -34q34 0 121.5 35t152.5 35q110 0 198 -40t161 -124q-102 -65 -151.5 -145.5t-49.5 -182.5q0 -113 60 -200t173 -138z" />
    <glyph glyph-name="Ograve" unicode="&#xd2;" horiz-adv-x="1612" 
d="M356 741q0 -94 31 -175t92 -148q67 -73 152 -112.5t176 -39.5q191 0 320.5 136t129.5 339q0 186 -130.5 317.5t-313.5 131.5q-191 0 -324 -131t-133 -318zM57 731q0 120 32 226.5t95 199.5q108 157 271 242.5t356 85.5q145 0 279.5 -56t240.5 -161q109 -109 166 -245
t57 -286q0 -156 -53.5 -293t-157.5 -243q-105 -111 -244.5 -170.5t-291.5 -59.5q-163 0 -300 58t-243 172q-102 108 -154.5 242.5t-52.5 287.5zM954 1593h-131l-295 348h222z" />
    <glyph glyph-name="Uacute" unicode="&#xda;" horiz-adv-x="1180" 
d="M121 1456h285v-840q0 -197 41.5 -273.5t142.5 -76.5t142.5 76.5t41.5 273.5v840h285v-924q0 -154 -17 -231t-57 -135q-68 -100 -164 -147.5t-231 -47.5t-231 47.5t-164 147.5q-40 58 -57 130t-17 236v924zM443 1593l204 348h222l-295 -348h-131z" />
    <glyph glyph-name="Ucircumflex" unicode="&#xdb;" horiz-adv-x="1180" 
d="M121 1456h285v-840q0 -197 41.5 -273.5t142.5 -76.5t142.5 76.5t41.5 273.5v840h285v-924q0 -154 -17 -231t-57 -135q-68 -100 -164 -147.5t-231 -47.5t-231 47.5t-164 147.5q-40 58 -57 130t-17 236v924zM293 1593l188 350h218l188 -350h-131l-166 211l-168 -211h-129z
" />
    <glyph glyph-name="Ugrave" unicode="&#xd9;" horiz-adv-x="1180" 
d="M121 1456h285v-840q0 -197 41.5 -273.5t142.5 -76.5t142.5 76.5t41.5 273.5v840h285v-924q0 -154 -17 -231t-57 -135q-68 -100 -164 -147.5t-231 -47.5t-231 47.5t-164 147.5q-40 58 -57 130t-17 236v924zM737 1593h-131l-295 348h222z" />
    <glyph glyph-name="dotlessi" unicode="&#x131;" horiz-adv-x="479" 
d="M115 0v1100h250v-1100h-250z" />
    <glyph glyph-name="circumflex" unicode="&#x2c6;" 
d="M215 1243l188 350h218l188 -350h-131l-166 211l-168 -211h-129z" />
    <glyph glyph-name="tilde" unicode="&#x2dc;" 
d="M813 1536q-23 -117 -71 -171t-128 -54q-19 0 -36.5 2t-32.5 6l-84 24q-3 1 -7 2q-42 11 -57 11q-33 0 -54 -16.5t-32 -51.5h-100q20 110 67.5 163.5t124.5 53.5q18 0 39 -3t45 -9l89 -25q20 -5 30.5 -6.5t20.5 -1.5q31 0 54 20.5t32 55.5h100z" />
    <glyph glyph-name="macron" unicode="&#xaf;" 
d="M236 1343v148h552v-148h-552z" />
    <glyph glyph-name="breve" unicode="&#x2d8;" 
d="M213 1565l121 -1q4 -72 47.5 -106.5t130.5 -34.5t129 34t47 107h119q-9 -146 -81.5 -217t-213.5 -71t-214.5 70.5t-84.5 218.5z" />
    <glyph glyph-name="dotaccent" unicode="&#x2d9;" 
d="M406 1286v240h215v-240h-215z" />
    <glyph glyph-name="ring" unicode="&#x2da;" 
d="M385 1481q0 -54 37.5 -90.5t91.5 -36.5t90.5 36.5t36.5 90.5t-37 91.5t-90 37.5q-54 0 -91.5 -38t-37.5 -91zM256 1483q0 107 74 181.5t182 74.5t183 -74.5t75 -181.5q0 -110 -74.5 -185t-183.5 -75q-108 0 -182 75t-74 185z" />
    <glyph glyph-name="cedilla" unicode="&#xb8;" 
d="M250 -434v119q83 -22 146.5 -32.5t107.5 -10.5q53 0 80.5 19t27.5 56q0 42 -33.5 61t-107.5 19q-7 0 -21.5 -1t-21.5 -1v205h92v-94h15q118 0 176.5 -48t58.5 -145q0 -90 -65 -140t-185 -50q-55 0 -123.5 11t-146.5 32z" />
    <glyph glyph-name="hungarumlaut" unicode="&#x2dd;" 
d="M565 1243l162 348h197l-254 -348h-105zM408 1243h-105l133 348h189z" />
    <glyph glyph-name="ogonek" unicode="&#x2db;" 
d="M625 0q-69 -59 -100 -110t-31 -103q0 -43 20 -61.5t68 -18.5h94v-156h-96q-119 0 -175.5 44t-56.5 137q0 64 46 129.5t143 138.5h88z" />
    <glyph glyph-name="caron" unicode="&#x2c7;" 
d="M215 1593h129l168 -211l166 211h131l-188 -350h-218z" />
    <glyph glyph-name="Lslash" unicode="&#x141;" horiz-adv-x="930" 
d="M889 0h-739v524l-152 -108v252l152 108v680h282v-565l211 151v-256l-211 -147v-383h457v-256z" />
    <glyph glyph-name="lslash" unicode="&#x142;" horiz-adv-x="537" 
d="M141 0v571l-141 -98v223l141 99v661h252v-567l144 98v-221l-144 -100v-666h-252z" />
    <glyph glyph-name="Scaron" unicode="&#x160;" horiz-adv-x="981" 
d="M33 452l260 1v-21q0 -92 48 -147.5t128 -55.5q86 0 136 51.5t50 139.5q0 141 -202 202q-26 8 -41 13q-170 53 -252 150.5t-82 246.5q0 205 113.5 329t302.5 124q177 0 282 -110.5t117 -309.5h-258v12q0 70 -42 113t-110 43q-70 0 -110.5 -44t-40.5 -120q0 -32 8.5 -56.5
t26.5 -44.5q41 -45 176 -83q60 -16 92 -27q150 -51 221.5 -146t71.5 -243q0 -225 -125 -361.5t-332 -136.5q-195 0 -315 132t-123 349zM195 1943h129l168 -211l166 211h131l-188 -350h-218z" />
    <glyph glyph-name="scaron" unicode="&#x161;" horiz-adv-x="834" 
d="M281 365v-15q0 -73 37 -118.5t96 -45.5q56 0 91.5 34t35.5 87q0 49 -26 80.5t-93 63.5q-38 17 -112 47t-95 47q-61 50 -90 111.5t-29 140.5q0 139 97.5 235t236.5 96q147 0 232.5 -85t93.5 -238h-230v6q0 53 -27.5 83t-76.5 30q-43 0 -71.5 -29.5t-28.5 -73.5
q0 -72 148 -134q39 -16 60 -25q142 -64 194 -137.5t52 -198.5q0 -154 -104 -254.5t-262 -100.5q-159 0 -256.5 106t-106.5 287zM121 1593h129l168 -211l166 211h131l-188 -350h-218z" />
    <glyph glyph-name="Zcaron" unicode="&#x17d;" horiz-adv-x="973" 
d="M942 0h-913v252l575 934h-534v270h858v-233l-586 -953h600v-270zM190 1943h129l168 -211l166 211h131l-188 -350h-218z" />
    <glyph glyph-name="zcaron" unicode="&#x17e;" horiz-adv-x="862" 
d="M35 0v236l491 626h-450v238h725v-275l-457 -579h487v-246h-796zM135 1593h129l168 -211l166 211h131l-188 -350h-218z" />
    <glyph glyph-name="brokenbar" unicode="&#xa6;" 
d="M424 408h178v-758h-178v758zM424 1432h178v-758h-178v758z" />
    <glyph glyph-name="Eth" unicode="&#xd0;" horiz-adv-x="1432" 
d="M627 250q237 0 348.5 116t111.5 363q0 227 -122.5 353t-341.5 126h-187v-360h301v-238h-301v-360h191zM645 0h-495v610h-150v238h150v608h485q198 0 318 -40t216 -134q104 -100 156.5 -242t52.5 -319q0 -198 -73.5 -354.5t-214.5 -257.5q-80 -59 -179 -84t-266 -25z" />
    <glyph glyph-name="eth" unicode="&#xf0;" horiz-adv-x="1241" 
d="M614 770q-117 0 -194.5 -79.5t-77.5 -201.5q0 -131 77.5 -210.5t205.5 -79.5t203 79.5t75 215.5q0 122 -80.5 199t-208.5 77zM510 1468q71 -31 134.5 -66t121.5 -75l289 103l63 -158l-203 -76q116 -137 175 -302t59 -351q0 -258 -145.5 -414t-382.5 -156
q-113 0 -204.5 38t-166.5 116q-72 73 -109 163t-37 191t38.5 192.5t111.5 162.5t168 110t196 39q69 0 130 -20t118 -62q-34 72 -72 126.5t-83 98.5l-297 -106l-62 154l199 73q-20 11 -44 23t-75 35z" />
    <glyph glyph-name="Yacute" unicode="&#xdd;" horiz-adv-x="1010" 
d="M643 524v-524h-285v524l-417 932h313l252 -627l250 627h311zM359 1593l204 348h222l-295 -348h-131z" />
    <glyph glyph-name="yacute" unicode="&#xfd;" horiz-adv-x="1049" 
d="M-23 1100h271l268 -768l295 768h268l-594 -1456h-264l154 387zM377 1243l204 348h222l-295 -348h-131z" />
    <glyph glyph-name="Thorn" unicode="&#xde;" horiz-adv-x="1053" 
d="M406 549h75q120 0 183 50.5t63 145.5q0 100 -62 149.5t-186 49.5h-73v-395zM406 303v-303h-285v1456h285v-258h77q142 0 219 -14t127 -47q90 -60 141.5 -161t51.5 -216q0 -208 -138 -332.5t-372 -124.5h-106z" />
    <glyph glyph-name="thorn" unicode="&#xfe;" horiz-adv-x="1319" 
d="M348 88v-444h-252v1812h252v-448q77 61 161 90.5t181 29.5q104 0 196 -32.5t165 -96.5q99 -86 152.5 -203t53.5 -249q0 -122 -48.5 -233.5t-137.5 -194.5q-76 -72 -173.5 -110t-205.5 -38q-107 0 -190 28.5t-154 88.5zM358 555q0 -141 91 -235.5t225 -94.5q133 0 226 96
t93 230q0 139 -94 231t-237 92q-125 0 -214.5 -93t-89.5 -226z" />
    <glyph glyph-name="minus" unicode="&#x2212;" horiz-adv-x="1706" 
d="M254 696h1198v-170h-1198v170z" />
    <glyph glyph-name="multiply" unicode="&#xd7;" horiz-adv-x="1706" 
d="M403 1188l459 -459l461 459l117 -117l-459 -461l459 -458l-117 -119l-461 461l-459 -461l-116 119l458 458l-458 461z" />
    <glyph glyph-name="onesuperior" unicode="&#xb9;" horiz-adv-x="784" 
d="M514 582h-180v745h-168v129h348v-874z" />
    <glyph glyph-name="twosuperior" unicode="&#xb2;" horiz-adv-x="784" 
d="M707 582h-635v163l348 295q49 42 74.5 83t25.5 79q0 49 -35 81t-90 32q-57 0 -89 -34t-32 -95v-17h-188v5q0 133 86 214.5t227 81.5q131 0 221.5 -78.5t90.5 -191.5q0 -61 -35.5 -120t-108.5 -119l-270 -222h410v-157z" />
    <glyph glyph-name="threesuperior" unicode="&#xb3;" horiz-adv-x="784" 
d="M76 862h180v-6q0 -61 36 -98t95 -37q64 0 104.5 41.5t40.5 107.5q0 69 -44.5 103.5t-133.5 34.5q-4 0 -13 -1t-13 -1v145q4 0 12 -1t12 -1q61 0 89 21.5t28 68.5q0 38 -22 60t-60 22q-35 0 -54.5 -22t-21.5 -62h-166q0 106 69.5 171t182.5 65q101 0 171.5 -64.5
t70.5 -153.5q0 -54 -22.5 -93.5t-71.5 -69.5q83 -35 123.5 -93t40.5 -143q0 -56 -20 -103.5t-62 -93.5q-50 -51 -104 -72.5t-132 -21.5q-148 0 -231.5 77.5t-83.5 215.5v4z" />
    <glyph glyph-name="onequarter" unicode="&#xbc;" horiz-adv-x="1841" 
d="M1550 260v340l-243 -340h243zM1708 0h-158v123h-403v137l397 555h164v-555h76v-137h-76v-123zM1286 1485h146l-875 -1516h-149zM489 641h-172v694h-159v121h331v-815z" />
    <glyph glyph-name="onehalf" unicode="&#xbd;" horiz-adv-x="1841" 
d="M1765 0h-606v152l334 276q48 40 72 78t24 74q0 45 -33.5 74.5t-85.5 29.5q-55 0 -85.5 -31.5t-30.5 -89.5v-14h-180v2q0 126 82 202t217 76q125 0 210.5 -73t85.5 -178q0 -59 -34 -114.5t-103 -111.5l-256 -205h389v-147zM1286 1485h146l-875 -1516h-149zM489 641h-172
v694h-159v121h331v-815z" />
    <glyph glyph-name="threequarters" unicode="&#xbe;" horiz-adv-x="1841" 
d="M1550 260v340l-243 -340h243zM1708 0h-158v123h-403v137l397 555h164v-555h76v-137h-76v-123zM1286 1485h146l-875 -1516h-149zM72 903h172v-6q0 -57 34 -92t91 -35q62 0 100.5 39t38.5 102t-43 95t-127 32q-4 0 -12.5 -1t-14.5 -1v135h25q59 0 86 20t27 64
q0 36 -21.5 56t-58.5 20q-33 0 -51.5 -20.5t-20.5 -58.5l-160 -1q0 100 66.5 161t175.5 61q96 0 163.5 -60t67.5 -143q0 -50 -21.5 -87t-68.5 -67q79 -31 117.5 -85t38.5 -134q0 -53 -19.5 -98t-58.5 -84q-47 -49 -98 -69.5t-125 -20.5q-142 0 -222.5 73t-80.5 201v4z" />
    <glyph glyph-name="franc" unicode="&#x20a3;" horiz-adv-x="1602" 
d="M121 0v1456h786v-256h-504v-332h504v-252h-504v-616h-282zM1612 877q-149 -12 -208 -78t-59 -238v-561h-256v1100h240v-127q58 74 127 108.5t156 34.5v-239z" />
    <glyph glyph-name="Gbreve" unicode="&#x11e;" horiz-adv-x="1612" 
d="M1554 774q0 -8 1 -24.5t1 -24.5q0 -94 -17 -174.5t-52 -151.5q-103 -205 -280.5 -316.5t-401.5 -111.5q-165 0 -305 63t-252 187q-93 104 -142 236t-49 280q0 152 59 288.5t173 248.5q108 107 240.5 159t293.5 52q235 0 406 -115t264 -336h-346q-63 79 -148.5 118.5
t-191.5 39.5q-187 0 -317 -135t-130 -328q0 -196 131.5 -330.5t323.5 -134.5q133 0 241.5 72t160.5 194h-572v244h909zM508 1915l121 -1q4 -72 47.5 -106.5t130.5 -34.5t129 34t47 107h119q-9 -146 -81.5 -217t-213.5 -71t-214.5 70.5t-84.5 218.5z" />
    <glyph glyph-name="gbreve" unicode="&#x11f;" horiz-adv-x="1319" 
d="M985 1100h229v-918q0 -286 -152.5 -449t-418.5 -163q-199 0 -333 93.5t-197 277.5h247q40 -74 114 -116t165 -42q153 0 248.5 99.5t95.5 262.5v11q-74 -77 -169 -116.5t-208 -39.5q-110 0 -208.5 38t-174.5 109q-82 78 -129 186t-47 220q0 250 158 412.5t401 162.5
q111 0 204.5 -39t174.5 -120v131zM301 569q0 -144 96.5 -241t237.5 -97q129 0 227.5 98t98.5 228q0 141 -97 240.5t-231 99.5q-138 0 -235 -95t-97 -233zM360 1565l121 -1q4 -72 47.5 -106.5t130.5 -34.5t129 34t47 107h119q-9 -146 -81.5 -217t-213.5 -71t-214.5 70.5
t-84.5 218.5z" />
    <glyph glyph-name="Idotaccent" unicode="&#x130;" horiz-adv-x="530" 
d="M123 0v1456h285v-1456h-285zM160 1636v240h215v-240h-215z" />
    <glyph glyph-name="Scedilla" unicode="&#x15e;" horiz-adv-x="981" 
d="M33 452l260 1v-21q0 -92 48 -147.5t128 -55.5q86 0 136 51.5t50 139.5q0 141 -202 202q-26 8 -41 13q-170 53 -252 150.5t-82 246.5q0 205 113.5 329t302.5 124q177 0 282 -110.5t117 -309.5h-258v12q0 70 -42 113t-110 43q-70 0 -110.5 -44t-40.5 -120q0 -32 8.5 -56.5
t26.5 -44.5q41 -45 176 -83q60 -16 92 -27q150 -51 221.5 -146t71.5 -243q0 -225 -125 -361.5t-332 -136.5q-195 0 -315 132t-123 349zM230 -434v119q83 -22 146.5 -32.5t107.5 -10.5q53 0 80.5 19t27.5 56q0 42 -33.5 61t-107.5 19q-7 0 -21.5 -1t-21.5 -1v205h92v-94h15
q118 0 176.5 -48t58.5 -145q0 -90 -65 -140t-185 -50q-55 0 -123.5 11t-146.5 32z" />
    <glyph glyph-name="scedilla" unicode="&#x15f;" horiz-adv-x="834" 
d="M281 365v-15q0 -73 37 -118.5t96 -45.5q56 0 91.5 34t35.5 87q0 49 -26 80.5t-93 63.5q-38 17 -112 47t-95 47q-61 50 -90 111.5t-29 140.5q0 139 97.5 235t236.5 96q147 0 232.5 -85t93.5 -238h-230v6q0 53 -27.5 83t-76.5 30q-43 0 -71.5 -29.5t-28.5 -73.5
q0 -72 148 -134q39 -16 60 -25q142 -64 194 -137.5t52 -198.5q0 -154 -104 -254.5t-262 -100.5q-159 0 -256.5 106t-106.5 287zM156 -434v119q83 -22 146.5 -32.5t107.5 -10.5q53 0 80.5 19t27.5 56q0 42 -33.5 61t-107.5 19q-7 0 -21.5 -1t-21.5 -1v205h92v-94h15
q118 0 176.5 -48t58.5 -145q0 -90 -65 -140t-185 -50q-55 0 -123.5 11t-146.5 32z" />
    <glyph glyph-name="Cacute" unicode="&#x106;" horiz-adv-x="1540" 
d="M1489 1024h-348q-62 84 -147.5 126t-194.5 42q-88 0 -167 -33t-140 -96q-65 -66 -100.5 -152.5t-35.5 -177.5q0 -200 128.5 -335.5t314.5 -135.5q107 0 192.5 40t138.5 116h349q-102 -223 -272 -335t-406 -112q-164 0 -302.5 63t-248.5 187q-93 103 -141 234.5t-48 281.5
q0 152 58 288.5t170 248.5q106 104 235.5 157.5t278.5 53.5q239 0 408.5 -114t277.5 -347zM656 1593l204 348h222l-295 -348h-131z" />
    <glyph glyph-name="cacute" unicode="&#x107;" horiz-adv-x="1241" 
d="M905 709q-46 86 -117.5 129t-169.5 43q-130 0 -217.5 -94t-87.5 -236q0 -140 89.5 -233t224.5 -93q104 0 173 44.5t103 133.5h273q-50 -202 -195 -317t-352 -115q-122 0 -226 43.5t-188 128.5q-78 80 -122 187.5t-44 218.5q0 116 40 217t118 182q86 91 194 138t232 47
q202 0 350 -115t195 -309h-273zM484 1243l204 348h222l-295 -348h-131z" />
    <glyph glyph-name="Ccaron" unicode="&#x10c;" horiz-adv-x="1540" 
d="M1489 1024h-348q-62 84 -147.5 126t-194.5 42q-88 0 -167 -33t-140 -96q-65 -66 -100.5 -152.5t-35.5 -177.5q0 -200 128.5 -335.5t314.5 -135.5q107 0 192.5 40t138.5 116h349q-102 -223 -272 -335t-406 -112q-164 0 -302.5 63t-248.5 187q-93 103 -141 234.5t-48 281.5
q0 152 58 288.5t170 248.5q106 104 235.5 157.5t278.5 53.5q239 0 408.5 -114t277.5 -347zM506 1943h129l168 -211l166 211h131l-188 -350h-218z" />
    <glyph glyph-name="ccaron" unicode="&#x10d;" horiz-adv-x="1241" 
d="M905 709q-46 86 -117.5 129t-169.5 43q-130 0 -217.5 -94t-87.5 -236q0 -140 89.5 -233t224.5 -93q104 0 173 44.5t103 133.5h273q-50 -202 -195 -317t-352 -115q-122 0 -226 43.5t-188 128.5q-78 80 -122 187.5t-44 218.5q0 116 40 217t118 182q86 91 194 138t232 47
q202 0 350 -115t195 -309h-273zM334 1593h129l168 -211l166 211h131l-188 -350h-218z" />
    <glyph glyph-name="dcroat" unicode="&#x111;" horiz-adv-x="1346" 
d="M958 532q0 137 -88 229.5t-219 92.5t-222 -93.5t-91 -223.5q0 -134 91.5 -226t223.5 -92q130 0 217.5 90t87.5 223zM969 88q-77 -60 -159 -88.5t-177 -28.5q-234 0 -393.5 165t-159.5 405q0 233 161 398t392 165q104 0 184 -27.5t152 -87.5v195h-293v149h293v123h252
v-123h168v-149h-168v-1184h-252v88z" />
    <glyph glyph-name="sfthyphen" unicode="&#xad;" horiz-adv-x="696" 
d="M606 668v-236h-516v236h516z" />
    <glyph glyph-name="periodcentered" unicode="&#x2219;" horiz-adv-x="596" 
d="M160 729q0 57 40 96t97 39t97 -39t40 -96t-40 -97t-97 -40t-97 39.5t-40 97.5z" />
    <glyph glyph-name="euro" horiz-adv-x="1190" 
d="M41 631h109v166h-134l31 176h102q4 239 139 375.5t371 136.5q208 0 344 -114.5t158 -309.5h-282q-13 76 -73 120t-147 44q-106 0 -162 -63t-60 -187h378l-31 -176h-350v-168h330l-31 -176h-297q6 -121 56.5 -172.5t164.5 -51.5q95 0 148.5 46t68.5 141h289v-6
q0 -190 -147.5 -315.5t-358.5 -125.5q-225 0 -362 131t-143 353h-142z" />
    <glyph glyph-name="euro" unicode="&#x20ac;" horiz-adv-x="1190" 
d="M41 631h109v166h-134l31 176h102q4 239 139 375.5t371 136.5q208 0 344 -114.5t158 -309.5h-282q-13 76 -73 120t-147 44q-106 0 -162 -63t-60 -187h378l-31 -176h-350v-168h330l-31 -176h-297q6 -121 56.5 -172.5t164.5 -51.5q95 0 148.5 46t68.5 141h289v-6
q0 -190 -147.5 -315.5t-358.5 -125.5q-225 0 -362 131t-143 353h-142z" />
    </font>
</defs>
</svg>
